<?xml version="1.0" standalone="no"?>
<!DOCTYPE svg PUBLIC "-//W3C//DTD SVG 1.1//EN" "http://www.w3.org/Graphics/SVG/1.1/DTD/svg11.dtd" >
<svg xmlns="http://www.w3.org/2000/svg" xmlns:xlink="http://www.w3.org/1999/xlink" version="1.1">
<metadata>
Created by FontForge 20170731 at Sun May  8 12:27:57 2022
 By Aleksey,,,
Copyright (c) 2017 by trueText online. All rights reserved.
</metadata>
<defs>
<font id="TrueTextBOnline-Regular" horiz-adv-x="0" >
  <font-face 
    font-family="TrueTextBOnline"
    font-weight="300"
    font-stretch="normal"
    units-per-em="1000"
    panose-1="2 0 0 0 0 0 0 0 0 0"
    ascent="750"
    descent="-250"
    x-height="426"
    cap-height="589"
    bbox="-587 -511 984 1002"
    underline-thickness="35"
    underline-position="-142"
    unicode-range="U+0020-F882"
  />
<missing-glyph horiz-adv-x="524" 
 />
    <glyph glyph-name="copyright" unicode="&#x3b;&#x3b;For&#x20;Education&#x20;Used&#x20;Only&#x3b;&#x3b;" horiz-adv-x="702" 
d="M661 305q0 -66 -23.5 -122t-64.5 -96.5t-97 -63.5t-122 -23t-122.5 23t-97.5 63.5t-64.5 96.5t-23.5 122t23.5 122t65 97t98 64t121.5 23t121.5 -23.5t97.5 -64.5t64.5 -97t23.5 -121zM613 305q0 56 -19.5 103.5t-54 83t-82 55.5t-103.5 20t-103.5 -20t-82 -55.5t-54 -83
t-19.5 -103.5t19.5 -104t54 -83.5t82 -56t103.5 -20.5t103.5 20.5t82 56t54 84t19.5 103.5zM514 240q-9 -60 -51 -92.5t-102 -32.5q-41 0 -74 14t-56.5 39.5t-36 60t-12.5 76.5t12.5 77t35.5 59.5t56 38.5t75 14q60 0 102 -32.5t51 -92.5h-43q-8 38 -35.5 62.5t-73.5 24.5
q-64 0 -100 -41.5t-36 -109.5t35 -110.5t101 -42.5q45 0 73 25t36 63h43z" />
    <glyph glyph-name="registered" unicode="&#x3b;&#x3b;Registered&#x3b;&#x3b;" horiz-adv-x="702" 
d="M654 304q0 -66 -23.5 -122t-64.5 -96.5t-97 -63.5t-122 -23t-122.5 23t-97.5 63.5t-64.5 96.5t-23.5 122t23.5 122t65 97t98 64t121.5 23t121.5 -23.5t97.5 -64.5t64.5 -97t23.5 -121zM606 304q0 56 -19.5 103.5t-54 83t-82 55.5t-103.5 20t-103.5 -20t-82 -55.5t-54 -83
t-19.5 -103.5t19.5 -104t54 -83.5t82 -56t103.5 -20.5t103.5 20.5t82 56t54 84t19.5 103.5zM503 127h-51l-99 157h-74v-157h-44v354h137q115 0 115 -98q0 -45 -24 -68.5t-65 -30.5zM443 383q0 34 -23 47.5t-61 13.5h-80v-124h57q28 0 45.5 2t28.5 7q33 14 33 54z" />
    <glyph glyph-name="multiply" unicode="&#x3b;&#x3b;Multiply&#x3b;&#x3b;" horiz-adv-x="474" 
d="M427 95l-31 -32l-157 158l-156 -156l-32 31l157 156l-157 156l32 31l156 -157l157 157l31 -29l-157 -158z" />
    <glyph glyph-name="divide" unicode="&#x3b;&#x3b;Divide&#x3b;&#x3b;" horiz-adv-x="474" 
d="M277 426q0 -44 -40 -44t-40 44t40 44t40 -44zM438 234h-401v44h401v-44zM277 85q0 -42 -40 -42t-40 42q0 44 40 44t40 -44z" />
    <glyph glyph-name="quotedblleft" unicode="&#x2018;&#x2018;" horiz-adv-x="327" 
d="M281 475q0 -24 -15 -39t-37 -15q-23 0 -37 17t-14 44q0 88 64 134l32 -21q-22 -15 -36 -34t-14 -34l5 2q22 0 37 -14t15 -40zM141 475q0 -24 -15 -39t-36 -15q-23 0 -37.5 17t-14.5 44q0 87 64 134l33 -21q-23 -15 -36.5 -34t-13.5 -34l5 2q21 0 36 -14t15 -40z" />
    <glyph glyph-name="quotedblright" unicode="&#x2019;&#x2019;" horiz-adv-x="329" 
d="M39 562q0 24 15 39t37 15t36.5 -17t14.5 -45q0 -86 -64 -133l-33 21q23 15 36.5 34t13.5 34l-4 -3q-22 0 -37 14.5t-15 40.5zM179 562q0 24 15 39t36 15q23 0 37.5 -17t14.5 -45q0 -86 -64 -133l-33 21q22 15 36 34t14 34l-5 -3q-21 0 -36 14.5t-15 40.5z" />
    <glyph glyph-name="trademark" unicode="&#x3b;&#x3b;Trademark&#x3b;&#x3b;" horiz-adv-x="591" 
d="M545 630q9 -4 9 -13v-303q0 -13 -13 -13t-13 13v257l-85 -135q-3 -6 -11 -6q-6 0 -11 6l-86 135v-257q0 -13 -13 -13q-14 0 -14 13v303q0 9 10 13q10 2 15 -6l99 -156l98 156q5 8 15 6zM257 625q13 0 13 -13q0 -14 -13 -14h-95v-285q0 -13 -14 -13q-12 0 -12 13v285h-96
q-13 0 -13 14q0 13 13 13h217z" />
    <glyph glyph-name="uniF881" unicode="&#xe24;&#xe32;" horiz-adv-x="912" 
d="M430 -181h-52v544q0 26 -11 45.5t-30 32.5t-45 19.5t-56 6.5q-50 0 -84 -14.5t-55 -41.5q19 -8 42 -18t46 -24q-10 -6 -21 -16t-20 -22t-14.5 -25t-5.5 -25v-126q11 5 20 7t17 2q35 0 60 -23.5t25 -61.5q0 -37 -26 -60t-61 -23q-41 0 -64 23.5t-23 65.5v197q0 23 14 44.5
t32 32.5q-23 11 -45.5 18.5t-46.5 14.5q26 57 80 89.5t129 32.5q88 0 141.5 -38t53.5 -114v-543zM821 -184h-53v542q0 53 -30 79.5t-84 26.5q-48 0 -81.5 -24t-45.5 -78h-51q8 68 55.5 108.5t122.5 40.5t121 -40.5t46 -109.5v-545zM200 79q0 40 -40 40t-40 -40t40 -40t40 40
z" />
    <glyph glyph-name="uniF882" unicode="&#xe26;&#xe32;" horiz-adv-x="976" 
d="M493 -184h-52v544q0 26 -11 45.5t-30 32.5t-45 19.5t-56 6.5q-50 0 -84 -14.5t-56 -41.5q19 -8 42.5 -18t46.5 -24q-10 -6 -21 -15.5t-20 -21.5t-14.5 -25t-5.5 -26v-196q0 -42 -23 -65.5t-61 -23.5q-34 0 -57.5 22.5t-23.5 60.5t23 61.5t56 23.5q23 0 33 -7v125
q0 23 14.5 44.5t32.5 32.5q-24 11 -46.5 18.5t-45.5 14.5q26 57 80 89.5t129 32.5q88 0 141.5 -38t53.5 -114v-543zM870 -184h-53v542q0 53 -30 79.5t-84 26.5q-48 0 -81.5 -24t-45.5 -78h-51q8 68 55.5 108.5t122.5 40.5t121 -40.5t46 -109.5v-545zM140 76q0 18 -11 29
t-27 11q-38 0 -38 -40q0 -18 10 -29t28 -11q16 0 27 11t11 29z" />
    <glyph glyph-name=".notdef" horiz-adv-x="524" 
 />
    <glyph glyph-name=".null" 
 />
    <glyph glyph-name="uni000D" horiz-adv-x="249" 
 />
    <glyph glyph-name="uni0000" horiz-adv-x="833" 
 />
    <glyph glyph-name="uni0000" horiz-adv-x="833" 
 />
    <glyph glyph-name="space" unicode=" " horiz-adv-x="249" 
 />
    <glyph glyph-name="exclam" unicode="!" horiz-adv-x="191" 
d="M124 414l-13 -268h-31l-12 268v175h56v-175zM140 44q0 -19 -12 -32.5t-32 -13.5q-43 0 -43 46q0 47 43 47q44 0 44 -47z" />
    <glyph glyph-name="quotedbl" unicode="&#x22;" horiz-adv-x="243" 
d="M204 521h-53v201h53v-201zM94 521h-53v201h53v-201z" />
    <glyph glyph-name="numbersign" unicode="#" horiz-adv-x="483" 
d="M441 350h-91l-18 -129h87v-37h-92l-26 -184h-41l26 184h-116l-26 -184h-41l26 184h-92v37h97l17 129h-90v38h95l27 182h41l-27 -182h117l26 182h41l-26 -182h86v-38zM309 350h-117l-17 -129h116z" />
    <glyph glyph-name="dollar" unicode="$" horiz-adv-x="472" 
d="M440 162q0 -41 -16 -71.5t-42.5 -51t-61 -30.5t-72.5 -10v-70h-31v71q-97 10 -142.5 56.5t-45.5 140.5h52q0 -141 136 -156v244q-37 8 -69 19t-55 29.5t-36.5 46.5t-13.5 70q0 37 13 66.5t36.5 50.5t55.5 32.5t69 11.5v65h31v-65q38 0 70.5 -14t56 -38t36.5 -56.5
t13 -70.5h-52q0 63 -33.5 99t-90.5 36v-238q37 -7 71.5 -18t61.5 -29.5t43 -47t16 -72.5zM217 337v230q-53 0 -86.5 -30.5t-33.5 -91.5q0 -40 21 -66q24 -24 99 -42zM388 161q0 29 -13 49t-33.5 33.5t-45 21.5t-48.5 13v-237q29 0 54 7t44.5 22t30.5 37.5t11 53.5z" />
    <glyph glyph-name="percent" unicode="%" horiz-adv-x="720" 
d="M559 603l-372 -623h-41l374 623h39zM309 432q0 -32 -7 -60.5t-22.5 -50t-40.5 -34t-61 -12.5q-67 0 -98.5 42.5t-31.5 114.5t31.5 114t98.5 42t99 -42.5t32 -113.5zM265 432q0 46 -17 78q-24 41 -70 41q-24 0 -40.5 -9.5t-27 -25.5t-15 -38t-4.5 -46q0 -21 4 -42.5
t14 -38.5t27 -27.5t42 -10.5q46 0 70 39q17 32 17 80zM671 150q0 -33 -6.5 -61.5t-22 -49.5t-40.5 -32.5t-62 -11.5q-66 0 -98.5 41.5t-32.5 113.5t31.5 114t99.5 42t99.5 -43t31.5 -113zM627 148q0 21 -4 42.5t-14 38.5t-27 28t-42 11q-23 0 -39.5 -9.5t-27 -26
t-15.5 -38.5t-5 -46q0 -21 4 -42t14 -37.5t27 -27t42 -10.5q26 0 43 10t26.5 26.5t13.5 37.5t4 43z" />
    <glyph glyph-name="ampersand" unicode="&#x26;" horiz-adv-x="508" 
d="M515 0h-65l-63 76q-35 -42 -77.5 -64t-96.5 -22q-78 0 -127.5 42.5t-49.5 120.5q0 31 13 57.5t34 48.5t46.5 39t50.5 30q-45 59 -49 65q-24 39 -24 77q0 53 36.5 86t93.5 33q28 0 52 -8.5t42 -24.5t28 -38t10 -48q0 -27 -10.5 -49.5t-27 -41.5t-37 -34t-41.5 -29
l128 -155q11 20 14 42.5t3 57.5h53q0 -35 -7.5 -69.5t-27.5 -71.5zM316 470q0 35 -22 55t-57 20t-56 -19t-21 -56q0 -27 22 -62q5 -9 16 -23.5t28 -34.5q20 12 34.5 24t25.5 23q30 35 30 73zM354 115l-145 179q-21 -11 -42.5 -25.5t-39 -32.5t-29 -40t-11.5 -48
q0 -25 10.5 -46.5t28 -37t41 -24.5t49.5 -9q42 0 76.5 23t61.5 61z" />
    <glyph glyph-name="quotesingle" unicode="'" horiz-adv-x="154" 
d="M103 521h-53v201h53v-201z" />
    <glyph glyph-name="parenleft" unicode="(" horiz-adv-x="213" 
d="M211 -47h-41q-30 49 -51.5 94t-36 90t-21.5 92t-7 99q0 106 29 199t87 183h41q-53 -84 -79.5 -188t-26.5 -213q0 -92 28 -181.5t78 -174.5z" />
    <glyph glyph-name="parenright" unicode=")" horiz-adv-x="202" 
d="M3 710h41q30 -49 51.5 -94t36 -90t21.5 -91.5t7 -99.5q0 -106 -29 -199t-87 -183h-41q53 84 79.5 188t26.5 213q0 92 -28 181.5t-78 174.5z" />
    <glyph glyph-name="asterisk" unicode="*" horiz-adv-x="310" 
d="M280 613l-96 -33l59 -81l-27 -19l-59 83l-61 -83l-26 19l60 81l-95 33l11 30l95 -34v101h33v-101l95 34z" />
    <glyph glyph-name="plus" unicode="+" horiz-adv-x="453" 
d="M418 205h-172v-172h-44v172h-171v44h171v171h44v-171h172v-44z" />
    <glyph glyph-name="comma" unicode="," horiz-adv-x="150" 
d="M118 41q0 -37 -15 -67.5t-44 -51.5l-28 18q18 13 31.5 30.5t13.5 31.5l-5 -2q-20 0 -33.5 12.5t-13.5 36.5q0 20 13.5 34t33.5 14t33.5 -14.5t13.5 -41.5z" />
    <glyph glyph-name="hyphen" unicode="-" horiz-adv-x="460" 
d="M424 228h-387v44h387v-44z" />
    <glyph glyph-name="period" unicode="." horiz-adv-x="196" 
d="M141 42q0 -22 -12 -34t-31 -12t-31.5 11.5t-12.5 34.5q0 21 12.5 34t31.5 13t31 -12.5t12 -34.5z" />
    <glyph glyph-name="slash" unicode="/" horiz-adv-x="302" 
d="M257 607h41l-251 -611h-44z" />
    <glyph glyph-name="zero" unicode="0" horiz-adv-x="483" 
d="M443 289q0 -51 -7.5 -104t-29.5 -95.5t-61.5 -69.5t-103.5 -27q-63 0 -102.5 27t-61.5 69.5t-30 95.5t-8 104t8 103.5t30.5 95.5t61.5 70.5t102 27.5t102 -27.5t61.5 -70.5t30.5 -95.5t8 -103.5zM391 289q0 38 -5 82t-20.5 82t-45 63.5t-79.5 25.5q-49 0 -78.5 -25.5
t-45.5 -63.5t-20.5 -82t-4.5 -82q0 -37 4.5 -81.5t20.5 -83t45.5 -64t78.5 -25.5q50 0 79.5 25.5t45.5 63.5t20.5 82.5t4.5 82.5z" />
    <glyph glyph-name="one" unicode="1" horiz-adv-x="310" 
d="M245 0h-53v428h-152v38q35 0 62.5 2.5t47.5 13.5t33 33.5t19 61.5h43v-577z" />
    <glyph glyph-name="two" unicode="2" horiz-adv-x="449" 
d="M411 0h-381q0 104 102 183q44 33 87.5 64.5t88.5 64.5q23 26 35.5 50.5t12.5 58.5q0 54 -36.5 86t-92.5 32q-67 0 -98.5 -45.5t-31.5 -115.5h-53q0 94 45.5 149.5t139.5 55.5q39 0 72 -10.5t57 -31.5t37 -51.5t13 -69.5q0 -36 -12.5 -65.5t-32.5 -54.5t-46.5 -46
t-53.5 -39q-26 -18 -51.5 -34.5t-51.5 -33.5q-60 -49 -71 -99h322v-48z" />
    <glyph glyph-name="three" unicode="3" horiz-adv-x="448" 
d="M423 168q0 -41 -15 -73.5t-41.5 -55t-63 -34t-79.5 -11.5q-92 0 -145 50t-53 144h52q0 -69 38 -110.5t107 -41.5q30 0 57 8.5t47 25t31.5 40t11.5 53.5q0 60 -39 91.5t-100 31.5h-43v43h43q24 0 45 7t37.5 20.5t26 33.5t9.5 45q0 54 -35.5 81t-90.5 27q-65 0 -98 -40
t-33 -106h-53q0 41 13 76t36.5 60.5t57.5 39.5t76 14q35 0 67 -8.5t56.5 -26.5t39.5 -45.5t15 -66.5q0 -48 -25 -82.5t-71 -45.5q57 -11 88 -49t31 -95z" />
    <glyph glyph-name="four" unicode="4" horiz-adv-x="470" 
d="M436 144h-87v-144h-48v144h-266v49l267 384h47v-390h87v-43zM301 187v314l-220 -314h220z" />
    <glyph glyph-name="five" unicode="5" horiz-adv-x="462" 
d="M429 189q0 -42 -15.5 -78t-42.5 -61.5t-63.5 -40t-78.5 -14.5q-41 0 -76 12t-60.5 35t-39.5 55.5t-14 72.5h52q0 -29 11 -53.5t30 -42t45.5 -27.5t56.5 -10q32 0 58.5 12.5t45 34t29 50t10.5 60.5t-11 59.5t-30.5 47.5t-47 31.5t-59.5 11.5q-38 0 -72 -17t-56 -52h-44
l55 301h289v-48h-252l-37 -191q23 23 56 37t68 14q44 0 80 -14.5t61 -40.5t38.5 -62.5t13.5 -81.5z" />
    <glyph glyph-name="six" unicode="6" horiz-adv-x="467" 
d="M432 188q0 -43 -15 -78.5t-41 -61t-62.5 -40t-78.5 -14.5q-52 0 -90.5 16.5t-63 52.5t-36.5 94t-12 142q0 50 9.5 101t33.5 92.5t63.5 68t99.5 26.5q160 0 178 -151h-51q-8 50 -39.5 78.5t-82.5 28.5q-50 0 -81 -25.5t-48.5 -64.5t-23.5 -84t-6 -84q23 44 65 69.5
t90 25.5q44 0 79 -14t60.5 -39.5t39 -60.5t13.5 -78zM380 185q0 32 -10 60t-28.5 48.5t-44.5 32t-58 11.5q-66 0 -104 -43t-38 -109q0 -67 35.5 -108t107.5 -41q30 0 56 11.5t44.5 32t29 47.5t10.5 58z" />
    <glyph glyph-name="seven" unicode="7" horiz-adv-x="471" 
d="M423 523q-52 -52 -95.5 -112.5t-74 -126.5t-47.5 -137.5t-17 -146.5h-56q0 80 18 150t49.5 133.5t75.5 122.5t95 117h-319v47h371v-47z" />
    <glyph glyph-name="eight" unicode="8" horiz-adv-x="471" 
d="M432 165q0 -42 -15 -74t-42 -53.5t-63.5 -33t-79.5 -11.5q-86 0 -141 40q-58 48 -58 132q0 58 31 97t87 50q-94 33 -94 129q0 37 15 64.5t39.5 45.5t56 26.5t64.5 8.5t64.5 -9t56 -27t39.5 -45.5t15 -63.5q0 -47 -24.5 -80t-69.5 -47v-2q56 -11 87.5 -49.5t31.5 -97.5z
M356 441q0 48 -34 74.5t-90 26.5q-52 0 -88 -26.5t-36 -74.5q0 -28 10 -48t27 -33t39.5 -19t47.5 -6q53 0 88.5 26.5t35.5 79.5zM379 165q0 61 -41.5 93.5t-105.5 32.5q-63 0 -105 -32.5t-42 -93.5q0 -63 41 -96.5t106 -33.5q31 0 58 8t46.5 24t31 40.5t11.5 57.5z" />
    <glyph glyph-name="nine" unicode="9" horiz-adv-x="471" 
d="M431 277q0 -50 -9.5 -101t-33.5 -92t-64 -67t-100 -26q-157 0 -177 149h52q6 -49 38.5 -78t82.5 -29t80.5 26t48 64.5t23.5 83.5t6 84q-22 -44 -63.5 -70t-91.5 -26q-43 0 -78.5 14t-60.5 39.5t-38.5 61.5t-13.5 79t15 78.5t41 61.5t62 40.5t79 14.5q53 0 91 -16.5
t63 -53.5t36.5 -95t11.5 -142zM367 392q0 69 -36.5 108.5t-107.5 39.5q-30 0 -55.5 -11.5t-43.5 -31.5t-28.5 -47t-10.5 -58q0 -33 9.5 -61t27.5 -48.5t44 -32t58 -11.5q68 0 105.5 43t37.5 110z" />
    <glyph glyph-name="colon" unicode=":" horiz-adv-x="168" 
d="M127 380q0 -22 -12 -34.5t-31 -12.5t-31.5 12t-12.5 35q0 22 12.5 35t31.5 13t31 -12.5t12 -35.5zM127 47q0 -22 -12 -34t-31 -12t-31.5 11.5t-12.5 34.5q0 22 12.5 35t31.5 13t31 -12.5t12 -35.5z" />
    <glyph glyph-name="semicolon" unicode=";" horiz-adv-x="168" 
d="M129 380q0 -22 -12 -34.5t-31 -12.5t-31.5 12t-12.5 35q0 22 12.5 34.5t31.5 12.5t31 -12t12 -35zM133 41q0 -37 -15 -67.5t-44 -51.5l-28 19q18 12 31.5 30t13.5 31l-5 -1q-20 0 -33.5 12.5t-13.5 35.5q0 20 13.5 34.5t33.5 14.5t33.5 -15t13.5 -42z" />
    <glyph glyph-name="less" unicode="&#x3c;" horiz-adv-x="458" 
d="M421 -5l-387 190v45l387 192v-44l-336 -170l336 -171v-42z" />
    <glyph glyph-name="equal" unicode="=" horiz-adv-x="452" 
d="M417 285h-387v44h387v-44zM417 148h-387v43h387v-43z" />
    <glyph glyph-name="greater" unicode="&#x3e;" horiz-adv-x="465" 
d="M40 420l387 -190v-45l-387 -192v44l336 170l-336 171v42z" />
    <glyph glyph-name="question" unicode="?" horiz-adv-x="448" 
d="M406 450q0 -23 -5.5 -44.5t-18.5 -39.5q-10 -16 -52 -58q-21 -19 -36 -35.5t-24.5 -35t-13.5 -41t-4 -52.5h-51q0 26 2.5 49t11 44.5t23 43t38.5 44.5q20 18 33 31t21 24q25 36 25 70q0 51 -34.5 77t-87.5 26q-68 0 -104.5 -43.5t-36.5 -115.5h-51q0 98 50 153.5
t144 55.5q75 0 123 -39t48 -114zM271 48q0 -19 -12 -33.5t-32 -14.5q-43 0 -43 48q0 47 43 47q44 0 44 -47z" />
    <glyph glyph-name="at" unicode="@" horiz-adv-x="691" 
d="M639 345q0 -95 -60 -169q-59 -71 -131 -71q-24 0 -40 14.5t-16 41.5q-23 -23 -49.5 -39t-57.5 -16q-50 0 -79.5 34.5t-29.5 85.5q0 42 13.5 84.5t38.5 77t62 56t83 21.5q29 0 51 -16.5t36 -53.5l20 54h44l-79 -238q-5 -14 -7 -25t-2 -20q0 -24 19 -24q53 0 96 67
q44 67 44 138q0 51 -18.5 91t-50 68t-74 43t-91.5 15q-59 0 -107 -21t-82.5 -58t-53 -87t-18.5 -107q0 -56 19.5 -104.5t54.5 -84.5t83 -56.5t105 -20.5q63 0 120.5 29.5t92.5 80.5h43q-18 -34 -46 -60.5t-61.5 -45.5t-71.5 -29t-77 -10q-67 0 -123.5 23t-97 63.5t-63 97
t-22.5 123.5q0 65 23 120.5t63.5 96t96 64t120.5 23.5q57 0 108 -17.5t89 -50.5t60.5 -80.5t22.5 -107.5zM434 344q0 31 -19.5 54t-45.5 23q-33 0 -59 -19t-44 -48t-27.5 -62t-9.5 -62q0 -38 18.5 -59t50.5 -21q30 0 55 21t43 51t28 63.5t10 58.5z" />
    <glyph glyph-name="A" unicode="A" horiz-adv-x="538" 
d="M533 0h-60l-71 184h-269l-70 -184h-59l235 589h64zM383 231l-114 301l-119 -301h233z" />
    <glyph glyph-name="B" unicode="B" horiz-adv-x="561" 
d="M524 167q0 -64 -34 -105q-53 -62 -178 -62h-249v589h249q36 0 70.5 -6.5t60.5 -23t42 -44.5t16 -70q0 -49 -27 -85.5t-76 -47.5q58 -8 92 -47t34 -98zM445 431q0 110 -133 110h-194v-210h194q65 0 99 27t34 73zM467 168q0 115 -155 115h-194v-235h194q31 0 59 5.5
t49.5 19t34 36.5t12.5 59z" />
    <glyph glyph-name="C" unicode="C" horiz-adv-x="579" 
d="M551 230q-12 -111 -76.5 -173t-169.5 -62q-67 0 -119 23.5t-87 65t-53 97t-18 119.5q0 63 18 119t53.5 97.5t87 65.5t118.5 24q44 0 84.5 -12.5t72.5 -37t53.5 -60t27.5 -80.5h-56q-15 69 -65 106t-117 37q-56 0 -97.5 -21.5t-69 -57t-41 -82.5t-13.5 -98t13.5 -98
t40.5 -83t68.5 -57.5t98.5 -21.5q40 0 73 14t57.5 39.5t40 60t19.5 76.5h56z" />
    <glyph glyph-name="D" unicode="D" horiz-adv-x="579" 
d="M540 295q0 -295 -270 -295h-203v589h203q270 0 270 -294zM484 295q0 66 -14 112.5t-43.5 76t-75 43.5t-109.5 14h-120v-493h120q127 0 184.5 58t57.5 189z" />
    <glyph glyph-name="E" unicode="E" horiz-adv-x="500" 
d="M477 0h-411v589h407v-48h-352v-212h329v-49h-329v-232h356v-48z" />
    <glyph glyph-name="F" unicode="F" horiz-adv-x="463" 
d="M438 541h-318v-212h283v-49h-283v-280h-55v589h373v-48z" />
    <glyph glyph-name="G" unicode="G" horiz-adv-x="601" 
d="M561 0h-40l-7 107q-29 -60 -84.5 -88.5t-122.5 -28.5t-119 23.5t-87 65t-53 97t-18 119.5q0 63 18 119t53.5 97.5t87 65.5t118.5 24q48 0 90 -13t74.5 -37.5t53.5 -60.5t28 -83h-56q-4 52 -55 98q-55 49 -135 49q-56 0 -97.5 -21.5t-69 -57t-41 -82.5t-13.5 -98t13.5 -98
t40.5 -83t68.5 -57.5t98.5 -21.5q48 0 86.5 16t64.5 44.5t40 68t14 87.5h-201v49h250v-300z" />
    <glyph glyph-name="H" unicode="H" horiz-adv-x="565" 
d="M515 0h-56v285h-350v-285h-55v589h55v-255h350v255h56v-589z" />
    <glyph glyph-name="I" unicode="I" horiz-adv-x="172" 
d="M119 0h-57v589h57v-589z" />
    <glyph glyph-name="J" unicode="J" horiz-adv-x="403" 
d="M353 165q0 -45 -9 -78t-29.5 -54.5t-53.5 -31.5t-80 -10q-49 0 -80.5 15t-50 41.5t-25.5 63t-7 79.5h56q0 -30 3.5 -58t15 -49.5t33.5 -34t60 -12.5q32 0 53.5 8t34.5 26t18 47t5 72v401h56v-425z" />
    <glyph glyph-name="K" unicode="K" horiz-adv-x="543" 
d="M553 0h-73l-245 308l-114 -105v-203h-55v589h55v-317l343 317h76l-264 -243z" />
    <glyph glyph-name="L" unicode="L" horiz-adv-x="449" 
d="M452 0h-385v589h55v-541h330v-48z" />
    <glyph glyph-name="M" unicode="M" horiz-adv-x="694" 
d="M644 0h-56v509l-204 -509h-53l-202 509l-2 -509h-56v589h83l203 -516l204 516h83v-589z" />
    <glyph glyph-name="N" unicode="N" horiz-adv-x="592" 
d="M537 0h-62l-344 499l-1 -499h-56v589h62l344 -497l1 497h56v-589z" />
    <glyph glyph-name="O" unicode="O" horiz-adv-x="611" 
d="M583 300q0 -64 -17.5 -120t-52.5 -97t-87 -64.5t-120 -23.5q-67 0 -119.5 23.5t-87.5 65t-53.5 97t-18.5 119.5q0 63 18.5 119t54 97.5t87.5 65.5t119 24q68 0 119.5 -24t86.5 -65.5t53 -97t18 -119.5zM527 300q0 51 -13.5 98t-41 83t-69 57t-97.5 21t-98 -21t-69.5 -57
t-41 -83t-13.5 -98q0 -52 13.5 -99t40.5 -83t69 -57t99 -21t98.5 21t69 57t40.5 83t13 99z" />
    <glyph glyph-name="P" unicode="P" horiz-adv-x="543" 
d="M512 421q0 -80 -46.5 -124t-129.5 -44h-206v-253h-55v589h261q79 0 127.5 -44.5t48.5 -123.5zM455 421q0 60 -35 90t-96 30h-194v-241h194q60 0 95.5 30.5t35.5 90.5z" />
    <glyph glyph-name="Q" unicode="Q" horiz-adv-x="630" 
d="M592 297q0 -70 -22.5 -130.5t-66.5 -102.5l85 -63l-29 -34l-91 67q-64 -42 -153 -42q-67 0 -119.5 23.5t-87.5 65t-53.5 97t-18.5 119.5t18.5 120t54 97.5t87.5 65.5t119 24q68 0 119.5 -24t86.5 -65.5t53 -97.5t18 -120zM536 297q0 52 -13.5 99t-40.5 82.5t-68.5 56.5
t-98.5 21t-98.5 -21t-69 -56.5t-41 -82.5t-13.5 -99q0 -51 13.5 -98t41 -83t69 -57.5t98.5 -21.5q62 0 109 29l-78 59l29 36l86 -64q37 35 56 88t19 112z" />
    <glyph glyph-name="R" unicode="R" horiz-adv-x="565" 
d="M536 0h-61q-11 15 -13.5 38.5t-2.5 53.5q0 50 -7.5 83t-22.5 52t-37 26.5t-50 7.5h-215v-261h-54v589h269q36 0 68.5 -9t57.5 -28t39.5 -48t14.5 -69q0 -57 -29 -98t-87 -52q56 -8 79.5 -42t23.5 -92q0 -52 5 -90.5t22 -60.5zM465 424q0 117 -128 117h-210v-232h210
q56 0 92 30.5t36 84.5z" />
    <glyph glyph-name="S" unicode="S" horiz-adv-x="533" 
d="M495 161q0 -48 -19.5 -80t-51.5 -51t-72.5 -27t-82.5 -8q-51 0 -94.5 11t-74.5 35t-48.5 63t-17.5 95h56q0 -45 15 -75.5t40.5 -49t61 -26.5t75.5 -8q27 0 54.5 7t50 22t37 37.5t14.5 53.5q0 26 -11 44t-28.5 30t-39 19.5t-42.5 12.5l-131 33q-29 8 -53.5 18t-42 26.5
t-27.5 40t-10 56.5q0 44 17 75t45 51.5t65 30t76 9.5q42 0 81 -11t69.5 -33.5t49 -57t18.5 -80.5h-56q0 32 -12.5 57.5t-34 42.5t-51 26t-63.5 9q-29 0 -56 -6t-47.5 -19.5t-32.5 -36.5t-12 -56q0 -21 7.5 -36t19.5 -25.5t28 -17t34 -11.5l144 -35q31 -9 58.5 -20.5
t48.5 -29t33.5 -43t12.5 -62.5z" />
    <glyph glyph-name="T" unicode="T" horiz-adv-x="470" 
d="M467 541h-205v-541h-57v541h-203v48h465v-48z" />
    <glyph glyph-name="U" unicode="U" horiz-adv-x="558" 
d="M513 218q0 -110 -60 -166.5t-169 -56.5t-168.5 56.5t-59.5 166.5v376h56v-364q0 -100 43 -145t129 -45q87 0 130 44t43 146v364h56v-376z" />
    <glyph glyph-name="V" unicode="V" horiz-adv-x="519" 
d="M509 589l-219 -589h-65l-217 589h59l191 -528l192 528h59z" />
    <glyph glyph-name="W" unicode="W" horiz-adv-x="755" 
d="M751 589l-163 -589h-60l-149 527l-150 -527h-61l-164 589h60l134 -515l145 515h70l145 -515l136 515h57z" />
    <glyph glyph-name="X" unicode="X" horiz-adv-x="472" 
d="M480 0h-67l-179 260l-181 -260h-62l211 304l-201 285h67l166 -247l173 247h62l-202 -286z" />
    <glyph glyph-name="Y" unicode="Y" horiz-adv-x="510" 
d="M514 589l-232 -347v-242h-57v242l-230 347h65l194 -299l192 299h68z" />
    <glyph glyph-name="Z" unicode="Z" horiz-adv-x="480" 
d="M464 0h-459v50l388 491h-362v48h425v-49l-388 -492h396v-48z" />
    <glyph glyph-name="bracketleft" unicode="[" horiz-adv-x="271" 
d="M203 -98h-133v757h133v-44h-80v-669h80v-44z" />
    <glyph glyph-name="backslash" unicode="\" horiz-adv-x="304" 
d="M298 -5h-44l-251 611h41z" />
    <glyph glyph-name="bracketright" unicode="]" horiz-adv-x="204" 
d="M139 -98h-133v44h80v669h-80v44h133v-757z" />
    <glyph glyph-name="asciicircum" unicode="^" horiz-adv-x="482" 
d="M453 312h-48l-165 321l-162 -321h-48l190 373h42z" />
    <glyph glyph-name="underscore" unicode="_" horiz-adv-x="463" 
d="M463 -164h-463v44h463v-44z" />
    <glyph glyph-name="grave" unicode="`" horiz-adv-x="155" 
d="M128 500h-42l-107 116h62z" />
    <glyph glyph-name="a" unicode="a" horiz-adv-x="435" 
d="M423 4l-34 -3q-36 0 -48.5 18.5t-12.5 55.5q-16 -24 -32 -40.5t-34 -26t-40.5 -14t-51.5 -4.5t-55 7.5t-45.5 22.5t-30.5 38.5t-11 54.5q0 79 71 108q39 16 158 29q37 6 49 12q17 14 17 46q0 48 -29.5 67t-81.5 19q-54 0 -84 -23t-30 -75h-51q0 72 46.5 107t125.5 35
q35 0 63.5 -7t49 -23t32 -42t11.5 -64v-226q0 -31 31 -31l17 3v-44zM323 166v67q-5 -8 -21 -12.5t-24 -6.5q-33 -7 -66 -12t-66 -11q-66 -21 -66 -75q0 -38 28.5 -61t67.5 -23q31 0 58 9.5t46.5 27t31 42t11.5 55.5z" />
    <glyph glyph-name="b" unicode="b" horiz-adv-x="478" 
d="M454 213q0 -45 -11.5 -85.5t-34.5 -71t-59 -48.5t-86 -18q-52 0 -93.5 23t-59.5 68l-1 -81h-48v589h51v-244q17 45 58.5 69t92.5 24q49 0 85 -18.5t59.5 -49.5t35 -71.5t11.5 -85.5zM401 213q0 33 -7 65t-23.5 58t-43 42t-64.5 16q-40 0 -68.5 -15t-47 -40t-27 -57.5
t-8.5 -68.5t8.5 -69t26.5 -58t47 -40t69 -15q38 0 64 16.5t42.5 42.5t24 58.5t7.5 64.5z" />
    <glyph glyph-name="c" unicode="c" horiz-adv-x="432" 
d="M404 156q-11 -78 -57.5 -120.5t-118.5 -42.5q-49 0 -87 17.5t-63 47.5t-38 71t-13 87q0 47 13 87.5t38 71.5t63 48.5t87 17.5q72 0 117.5 -36t54.5 -109h-51q-11 48 -41 74.5t-80 26.5q-38 0 -66 -15.5t-46.5 -40.5t-27.5 -57.5t-9 -67.5q0 -34 9 -66.5t27.5 -58
t46.5 -41t66 -15.5q49 0 84 33.5t40 87.5h52z" />
    <glyph glyph-name="d" unicode="d" horiz-adv-x="470" 
d="M420 0h-48v81q-9 -20 -25 -37t-36.5 -29t-44 -18.5t-47.5 -6.5q-49 0 -85 18t-60 48.5t-35.5 71t-11.5 85.5t11.5 86t35 71.5t60 49t85.5 18.5q51 0 91 -24t56 -69l2 244h52v-589zM368 213q0 36 -8 69t-26 57.5t-46 39.5t-69 15q-37 0 -63.5 -16t-43.5 -42t-24.5 -58
t-7.5 -65t7 -65.5t23.5 -58.5t43 -42t65.5 -16q40 0 68.5 15t46.5 40.5t26 58t8 68.5z" />
    <glyph glyph-name="e" unicode="e" horiz-adv-x="445" 
d="M412 205h-328q0 -32 8.5 -62.5t26 -54t43.5 -37.5t62 -14q55 0 88 28.5t46 80.5h52q-17 -75 -62 -113t-124 -38q-48 0 -84.5 16.5t-60.5 46t-36 70.5t-12 90q0 45 11.5 86t35.5 72t60.5 49t85.5 18q52 0 87.5 -20t58 -53.5t32.5 -76.5t10 -88zM359 248q0 32 -9.5 59.5
t-26.5 47.5t-42 32t-57 12q-33 0 -57.5 -12.5t-41.5 -33.5t-27.5 -48.5t-13.5 -56.5h275z" />
    <glyph glyph-name="f" unicode="f" horiz-adv-x="215" 
d="M227 541l-39 4q-39 0 -50 -24q-7 -11 -7 -58v-37h84v-43h-84v-383h-52v383h-73v43h73v39q0 28 4.5 50.5t16 39t32 25.5t51.5 9l44 -2v-46z" />
    <glyph glyph-name="g" unicode="g" horiz-adv-x="455" 
d="M405 37q0 -98 -43.5 -150t-145.5 -52q-30 0 -61 6.5t-56.5 21.5t-42 39.5t-16.5 60.5h53q7 -45 40.5 -65t82.5 -20q72 0 105 40t33 119v58q-20 -42 -55.5 -65t-82.5 -23q-50 0 -86.5 17t-60 46.5t-34.5 70t-11 86.5t13 85t38 67.5t60.5 44.5t80.5 16t82 -24t53 -61l3 74
h51v-392zM354 220q0 33 -7.5 64.5t-24 56t-42.5 40t-64 15.5q-34 0 -60 -14t-44 -38t-27 -56t-9 -68q0 -32 8.5 -62.5t26 -54t43.5 -38t62 -14.5q32 0 57.5 13t43.5 36t27.5 54t9.5 66z" />
    <glyph glyph-name="h" unicode="h" horiz-adv-x="454" 
d="M405 0h-51v266q0 28 -5.5 51.5t-18 40.5t-33.5 26.5t-52 9.5q-61 0 -96.5 -40.5t-35.5 -104.5v-249h-53v589h53v-236q7 18 21 34t32 27t40 17.5t44 6.5q84 0 119.5 -42t35.5 -122v-274z" />
    <glyph glyph-name="i" unicode="i" horiz-adv-x="176" 
d="M117 506h-53v83h53v-83zM117 0h-53v426h53v-426z" />
    <glyph glyph-name="j" unicode="j" horiz-adv-x="144" 
d="M99 532h-52v83h52v-83zM99 -12q0 -24 -3.5 -45.5t-13.5 -37.5t-28 -25.5t-46 -9.5l-34 1v44q20 -3 26 -1q26 0 36.5 15t10.5 46v477h52v-464z" />
    <glyph glyph-name="k" unicode="k" horiz-adv-x="410" 
d="M417 0h-65l-169 231l-84 -70v-161h-51v589h51v-369l237 206h69l-182 -159z" />
    <glyph glyph-name="l" unicode="l" horiz-adv-x="187" 
d="M122 0h-53v589h53v-589z" />
    <glyph glyph-name="m" unicode="m" horiz-adv-x="697" 
d="M647 0h-51v286q0 56 -23 81.5t-78 25.5q-35 0 -57.5 -12.5t-35 -33.5t-17.5 -48.5t-5 -57.5v-241h-53v288q0 22 -4.5 41t-15 33.5t-27 22.5t-41.5 8q-64 0 -96 -42t-32 -114v-237h-51v426h47v-72q24 42 58 62.5t83 20.5q45 0 78.5 -20.5t44.5 -61.5q19 42 54.5 62
t80.5 20q141 0 141 -149v-288z" />
    <glyph glyph-name="n" unicode="n" horiz-adv-x="454" 
d="M406 0h-51v266q0 28 -5.5 51.5t-18 40t-33.5 26t-52 9.5q-61 0 -96.5 -40.5t-35.5 -103.5v-249h-53v426h53v-74q7 18 21 34t32 27t40 17.5t44 6.5q84 0 119.5 -41t35.5 -122v-274z" />
    <glyph glyph-name="o" unicode="o" horiz-adv-x="449" 
d="M426 216q0 -46 -13 -87t-38.5 -71t-63.5 -47.5t-87 -17.5t-87 17.5t-63.5 47.5t-38.5 71t-13 87q0 47 13 87.5t38.5 71.5t63.5 48.5t87 17.5t87 -18t63.5 -48.5t38.5 -71.5t13 -87zM374 216q0 34 -9 66.5t-28 58t-47 41t-66 15.5t-66 -15.5t-46.5 -40.5t-27.5 -57.5
t-9 -67.5q0 -34 9 -66.5t27.5 -58t46.5 -41t66 -15.5t66 15.5t46.5 41t28 58t9.5 66.5z" />
    <glyph glyph-name="p" unicode="p" horiz-adv-x="488" 
d="M455 215q0 -45 -11.5 -85.5t-34.5 -71t-59 -48.5t-86 -18q-51 0 -92 23t-57 69l-2 -237h-51v581h48v-81q19 42 60 67.5t94 25.5q49 0 85 -18.5t59.5 -49.5t35 -71.5t11.5 -85.5zM402 215q0 33 -7 65.5t-23.5 58t-43 41.5t-64.5 16q-42 0 -71 -14t-46.5 -39t-25.5 -57.5
t-8 -70.5q0 -36 8.5 -69t26.5 -58t47 -39.5t69 -14.5q38 0 64 16t42.5 42t24 58.5t7.5 64.5z" />
    <glyph glyph-name="q" unicode="q" horiz-adv-x="465" 
d="M416 -155h-52v237q-18 -46 -58.5 -69t-90.5 -23q-49 0 -85 18t-60 48.5t-35.5 71t-11.5 85.5q0 100 47 157q50 68 145 68q50 0 91.5 -25.5t60.5 -67.5l1 81h48v-581zM364 213q0 36 -8 69t-26 58t-46 39.5t-69 14.5q-38 0 -64.5 -16t-43 -42t-24 -58t-7.5 -65t7 -65.5
t23.5 -58t43 -41.5t65.5 -16q40 0 68.5 15t46.5 40t26 57.5t8 68.5z" />
    <glyph glyph-name="r" unicode="r" horiz-adv-x="262" 
d="M262 380q-35 0 -64 -11.5t-50 -32t-32.5 -48.5t-11.5 -62v-226h-52v426h48v-100q44 105 162 105v-51z" />
    <glyph glyph-name="s" unicode="s" horiz-adv-x="395" 
d="M367 119q0 -36 -15 -60.5t-39 -39t-54.5 -20.5t-61.5 -6q-79 0 -123.5 35t-52.5 113h53q0 -50 35.5 -78t89.5 -28q19 0 39.5 4t37.5 14t28 25.5t11 37.5q0 19 -8.5 32t-22 22t-30 15t-31.5 9l-68 15q-56 15 -85 36q-33 29 -33 77q0 30 13 52.5t35 37t51 22t61 7.5
q68 0 112 -34t44 -102h-51q0 45 -32 68.5t-81 23.5q-42 0 -71 -17t-29 -55q0 -30 30 -50q13 -9 59 -22l69 -15q25 -4 46.5 -12.5t38 -23t26 -35.5t9.5 -48z" />
    <glyph glyph-name="t" unicode="t" horiz-adv-x="231" 
d="M218 -2l-46 -1q-53 0 -73 20t-20 75v291h-74v43h74v128h53v-128h86v-43h-86v-288q0 -30 7.5 -43t33.5 -13l45 3v-44z" />
    <glyph glyph-name="u" unicode="u" horiz-adv-x="456" 
d="M406 0h-48v76q-21 -42 -60.5 -64.5t-87.5 -22.5q-78 0 -113.5 41t-35.5 119v277h53v-277q0 -62 26 -90t87 -28q32 0 55.5 13.5t40 36.5t24.5 54t8 67v224h51v-426z" />
    <glyph glyph-name="v" unicode="v" horiz-adv-x="381" 
d="M380 426l-159 -426h-55l-165 426h59l132 -373l134 373h54z" />
    <glyph glyph-name="w" unicode="w" horiz-adv-x="606" 
d="M602 426l-138 -426h-56l-105 358l-106 -358h-56l-138 426h55l110 -365l105 365h59l104 -365l111 365h55z" />
    <glyph glyph-name="x" unicode="x" horiz-adv-x="399" 
d="M396 0h-66l-134 179l-132 -179h-63l165 221l-152 205h65l121 -162l118 162h66l-154 -203z" />
    <glyph glyph-name="y" unicode="y" horiz-adv-x="381" 
d="M379 426l-186 -489q-9 -24 -17 -41.5t-20 -29t-29.5 -16.5t-44.5 -5t-39 3v44l34 -3q30 0 48 18q11 14 28 47l17 47l-170 425h56l140 -363l132 363h51z" />
    <glyph glyph-name="z" unicode="z" horiz-adv-x="374" 
d="M365 0h-355v43l278 340h-259v43h325v-37l-281 -345h292v-44z" />
    <glyph glyph-name="braceleft" unicode="{" horiz-adv-x="246" 
d="M222 -154h-41q-35 0 -54 26.5t-19 76.5v120q0 61 -12 91q-13 42 -47 42v43q34 0 46.5 35.5t12.5 95.5v124q0 48 19 75.5t54 27.5h41v-44h-16q-24 0 -35 -23.5t-11 -61.5v-116q0 -47 -15.5 -82t-41.5 -52q26 -20 41.5 -54.5t15.5 -80.5v-114q0 -38 10 -61.5t36 -23.5h16
v-44z" />
    <glyph glyph-name="bar" unicode="|" horiz-adv-x="175" 
d="M109 -6h-43v611h43v-611z" />
    <glyph glyph-name="braceright" unicode="}" horiz-adv-x="285" 
d="M46 -154v44h16q26 0 36 23.5t10 61.5v114q0 46 15.5 80.5t41.5 54.5q-26 17 -41.5 52t-15.5 82v116q0 38 -11 61.5t-35 23.5h-16v44h41q35 0 54 -27.5t19 -75.5v-124q0 -60 12.5 -95.5t46.5 -35.5v-43q-33 0 -47 -42q-12 -30 -12 -91v-120q0 -50 -19 -76.5t-54 -26.5h-41
z" />
    <glyph glyph-name="asciitilde" unicode="~" horiz-adv-x="456" 
d="M416 323q-15 -22 -28 -35.5t-25 -21.5t-24 -11t-26 -3q-22 0 -44 8t-48 19q-29 16 -49.5 21.5t-37.5 5.5q-27 0 -43 -17t-27 -39l-29 28q17 32 40.5 52t62.5 20q23 0 48.5 -8t46.5 -19q18 -8 28.5 -13t14.5 -5q12 -5 21 -7t17 -2q23 0 41 17q7 7 14.5 16.5t17.5 23.5z
" />
    <glyph glyph-name="exclamdown" unicode="&#xa1;" horiz-adv-x="191" 
d="M133 542q0 -16 -11 -26.5t-26 -10.5q-16 0 -27 10.5t-11 26.5t11 26.5t27 10.5q15 0 26 -10.5t11 -26.5zM129 11q0 -14 -9.5 -23.5t-23.5 -9.5t-23.5 9.5t-9.5 23.5v152l19 258q0 13 15 13q11 0 13 -14l19 -257v-152z" />
    <glyph glyph-name="cent" unicode="&#xa2;" horiz-adv-x="387" 
d="M217 -55q0 -8 -5 -13t-13 -5t-13 5t-5 13v55q-43 6 -70 26.5t-41.5 50.5t-19.5 66.5t-5 75.5q0 37 5 75.5t19.5 70.5t41.5 55t70 29v57q0 8 5 13t13 5t13 -5t5 -13v-56q27 -3 48 -13.5t36.5 -26.5t25 -36t12.5 -41q-1 -10 -6.5 -18t-14.5 -10q-11 -2 -19.5 4t-9.5 17
q-3 29 -19 52t-53 30v-364q20 4 33.5 13.5t22 22t13 28.5t6.5 32q0 11 8.5 17t19.5 5q9 -2 15 -11t7 -18q-3 -22 -12 -44.5t-24 -41.5t-37 -32t-52 -16v-54zM103 206q0 -20 2 -44.5t10 -48t23.5 -42t42.5 -26.5v361q-28 -10 -44 -31.5t-23.5 -48t-9 -55t-1.5 -51.5v-14z" />
    <glyph glyph-name="sterling" unicode="&#xa3;" horiz-adv-x="404" 
d="M41 49q35 29 57.5 64t22.5 84q0 20 -6 40t-14 40h-71q-6 0 -9 3.5t-3 8t3 8t9 3.5h60q-22 37 -35.5 72t-13.5 71q0 38 13 67t36.5 48.5t55.5 29.5t70 10q71 0 114 -39t49 -104q-1 -11 -8 -20.5t-18 -11.5q-12 -1 -21.5 7t-10.5 20q-3 45 -31 72t-79 27q-57 0 -83 -32
t-26 -82q0 -35 15 -69.5t32 -65.5h127q6 0 8.5 -3.5t2 -8t-3 -8t-7.5 -3.5h-117q8 -17 13 -33.5t5 -31.5q0 -49 -28.5 -90t-66.5 -70l6 -10q43 26 91 26q8 0 19.5 -1.5t39.5 -8.5q16 -4 32.5 -7.5t34.5 -3.5q12 0 24.5 2.5t25.5 8.5q6 3 11 3q14 0 22 -13q5 -11 1 -19.5
t-12 -14.5q-16 -10 -33 -13.5t-40 -3.5q-20 0 -40.5 4.5t-40.5 10.5q-20 5 -38 10t-37 5q-23 0 -41 -5.5t-36 -14.5q-7 -6 -15 -6q-13 0 -22 12q-7 9 -3.5 19.5t10.5 16.5z" />
    <glyph glyph-name="yen" unicode="&#xa5;" horiz-adv-x="462" 
d="M259 231h111q5 0 9.5 -4.5t4.5 -10.5t-4.5 -10t-9.5 -4h-109v-69h109q5 0 9.5 -4t4.5 -10t-4.5 -10.5t-9.5 -4.5h-109v-74q0 -14 -8.5 -21.5t-20.5 -7.5t-20.5 7.5t-8.5 21.5v74h-108q-6 0 -10 4.5t-4 10.5q0 14 14 14h108v69h-108q-14 0 -14 14q0 6 4 10.5t10 4.5h111
l-174 333q-5 11 -1 21.5t14 15.5q11 5 21.5 1.5t15.5 -13.5l150 -302l151 302q6 11 16.5 14t20.5 -2q11 -6 14.5 -16.5t-1.5 -20.5z" />
    <glyph glyph-name="brokenbar" unicode="&#xa6;" horiz-adv-x="175" 
d="M110 377h-45v383h45v-383zM110 -100h-45v383h45v-383z" />
    <glyph glyph-name="section" unicode="&#xa7;" horiz-adv-x="423" 
d="M387 347q0 -67 -41.5 -101.5t-121.5 -34.5q69 -11 105 -41.5t36 -82.5q0 -42 -14.5 -69.5t-38.5 -44t-56.5 -23.5t-68.5 -7q-42 0 -84.5 6.5t-79.5 16.5l6 47q32 -10 74 -19t85 -9q26 0 50 5t42 16.5t29 31t11 49.5q0 31 -21.5 49t-53 31t-69 24t-69 28t-53 44t-21.5 71
q0 65 48 91t131 26q-33 7 -62 18.5t-50 29t-33 41t-12 54.5q0 35 13.5 58.5t36 37.5t52 20.5t61.5 6.5q42 0 83.5 -7.5t72.5 -17.5l-6 -39q-26 8 -63.5 15t-80.5 7q-24 0 -46.5 -4t-39.5 -14t-27.5 -25t-10.5 -38q0 -35 21.5 -55.5t53 -34t69 -23.5t69 -26t53 -41t21.5 -67z
M342 347q0 21 -10.5 34.5t-28.5 21t-42 10t-51 2.5q-64 0 -98 -20t-34 -61q0 -26 11 -43t29 -27.5t42 -14.5t50 -4t50 5t42 16.5t29 31t11 49.5z" />
    <glyph glyph-name="dieresis" unicode="&#xa8;" horiz-adv-x="324" 
d="M29 642q0 17 12 29t29 12t29 -12t12 -29t-12 -29t-29 -12t-29 12t-12 29zM213 642q0 17 12 29t29 12t29 -12t12 -29t-12 -29t-29 -12t-29 12t-12 29z" />
    <glyph glyph-name="ordfeminine" unicode="&#xaa;" horiz-adv-x="288" 
d="M214 440q-19 -19 -43 -31.5t-54 -12.5q-41 0 -65.5 25t-24.5 61q0 39 27 67t82 32l78 5v24q0 41 -20 55t-48 14q-25 0 -51.5 -9t-46.5 -20l-3 41q22 11 49 18.5t53 7.5q21 0 40.5 -5.5t34 -18t23.5 -32.5t9 -50v-211h-37zM146 546q-47 -4 -62 -20.5t-15 -42.5
q0 -49 50 -49q32 0 56 14.5t39 30.5v72z" />
    <glyph glyph-name="guillemotleft" unicode="&#xab;" horiz-adv-x="335" 
d="M285 123l-110 103v51l110 103v-55l-78 -74l78 -73v-55zM151 123l-109 103v51l109 103v-55l-78 -74l78 -73v-55z" />
    <glyph glyph-name="logicalnot" unicode="&#xac;" horiz-adv-x="499" 
d="M455 165h-50v108h-369v55h419v-163z" />
    <glyph glyph-name="uni00AD" unicode="&#xad;" horiz-adv-x="449" 
d="M415 227h-387v44h387v-44z" />
    <glyph glyph-name="macron" unicode="&#xaf;" horiz-adv-x="335" 
d="M304 627v-42h-274v42h274z" />
    <glyph glyph-name="degree" unicode="&#xb0;" horiz-adv-x="325" 
d="M157 717q26 0 49 -9.5t40 -26.5t26.5 -39t9.5 -48t-9.5 -48.5t-26.5 -39.5t-40 -26.5t-49 -9.5q-25 0 -47 9.5t-38.5 26t-26.5 39.5t-10 49q0 25 9.5 47t26 39t39 27t47.5 10zM157 682q-38 0 -63.5 -25t-25.5 -63q0 -37 26 -64t63 -27q18 0 34.5 7.5t29 20t20 29
t7.5 34.5q0 37 -26.5 62.5t-64.5 25.5z" />
    <glyph glyph-name="plusminus" unicode="&#xb1;" horiz-adv-x="410" 
d="M228 109q0 -10 -6.5 -17t-16.5 -7t-17 7t-7 17v116h-129q-10 0 -16 6.5t-6 15.5q0 22 22 22h129v116q0 9 6.5 16.5t17.5 7.5q10 0 16.5 -7t6.5 -17v-116h129q9 0 15.5 -6.5t6.5 -15.5q0 -10 -6.5 -16t-15.5 -6h-129v-116zM357 44q9 0 15.5 -6.5t6.5 -15.5q0 -10 -6.5 -16
t-15.5 -6h-305q-10 0 -16 6.5t-6 15.5q0 22 22 22h305z" />
    <glyph glyph-name="twosuperior" unicode="&#xb2;" horiz-adv-x="269" 
d="M233 578v-38h-200v44q34 27 61 50.5t45.5 45t28.5 43t10 45.5q0 30 -17 40.5t-40 10.5q-20 0 -41.5 -7t-38.5 -17l-2 40q39 22 85 22q38 0 66 -21.5t28 -67.5q0 -48 -36.5 -93.5t-99.5 -96.5h151z" />
    <glyph glyph-name="threesuperior" unicode="&#xb3;" horiz-adv-x="269" 
d="M38 598q45 -25 89 -25q35 0 51.5 14.5t16.5 38.5q0 25 -17.5 40.5t-57.5 15.5h-44v38h44q68 0 68 54q0 20 -13.5 32.5t-44.5 12.5q-22 0 -43.5 -6t-36.5 -13l-3 39q17 7 38.5 12.5t45.5 5.5q49 0 73 -22t24 -56q0 -25 -11 -44.5t-41 -33.5q32 -13 45.5 -32t13.5 -45
q0 -39 -28.5 -64t-80.5 -25q-29 0 -50 6t-42 18z" />
    <glyph glyph-name="acute" unicode="&#xb4;" horiz-adv-x="156" 
d="M54 585h-46l79 125h60z" />
    <glyph glyph-name="uni00B5" unicode="&#xb5;" horiz-adv-x="469" 
d="M59 500h45v-375q0 -90 80 -90q25 0 50.5 9t49.5 24t44.5 34t36.5 39v359h45v-500h-40l-5 90q-16 -20 -36.5 -37.5t-44 -31t-48 -21t-48.5 -7.5q-28 0 -46.5 8t-37.5 25v-226h-45v700z" />
    <glyph glyph-name="paragraph" unicode="&#xb6;" horiz-adv-x="456" 
d="M387 -141h-38v828h-88v-828h-34v491q-47 0 -88 8.5t-71 29.5t-47.5 56t-17.5 88q0 50 15.5 84t43.5 55.5t66.5 31t83.5 9.5h238v-25h-63v-828z" />
    <glyph glyph-name="periodcentered" unicode="&#xb7;" horiz-adv-x="196" 
d="M54 300q0 18 13 31t31 13t31 -13t13 -31t-13 -31t-31 -13t-31 13t-13 31z" />
    <glyph glyph-name="cedilla" unicode="&#xb8;" horiz-adv-x="170" 
d="M67 0h40l-8 -40q29 -1 43 -17t14 -45q0 -31 -18 -53t-60 -22q-16 0 -33.5 3.5t-31.5 8.5l9 42q32 -12 56 -12q21 0 29.5 9t8.5 23q0 23 -25 23h-40z" />
    <glyph glyph-name="onesuperior" unicode="&#xb9;" horiz-adv-x="242" 
d="M129 632l-79 -69v48l80 70h35v-397h-36v348z" />
    <glyph glyph-name="ordmasculine" unicode="&#xba;" horiz-adv-x="318" 
d="M159 396q-36 0 -60.5 12t-39.5 32.5t-22 46.5t-7 54v31q0 28 7 54t22 46.5t39.5 32.5t60.5 12t60.5 -12t39.5 -32.5t22 -46.5t7 -54v-31q0 -28 -7 -54t-22 -46.5t-39.5 -32.5t-60.5 -12zM159 434q26 0 43 8.5t27.5 23.5t14.5 35t4 42v27q0 23 -4 42.5t-14.5 34.5
t-27.5 23.5t-43 8.5t-43 -8.5t-27.5 -23.5t-14.5 -34.5t-4 -42.5v-27q0 -22 4 -42t14.5 -35t27.5 -23.5t43 -8.5z" />
    <glyph glyph-name="guillemotright" unicode="&#xbb;" horiz-adv-x="338" 
d="M57 93l78 73l-78 74v55l110 -103v-51l-110 -103v55zM191 93l78 73l-78 74v55l109 -103v-51l-109 -103v55z" />
    <glyph glyph-name="onequarter" unicode="&#xbc;" horiz-adv-x="601" 
d="M142 550v-306q0 -6 -4.5 -10.5t-10.5 -4.5t-10.5 4.5t-4.5 10.5v273l-52 -45q-12 -10 -21 1q-5 5 -4.5 10.5t5.5 10.5l77 67q5 3 10 3q6 0 10.5 -4t4.5 -10zM453 541l-1.5 -3t-10.5 -18t-29 -47t-56.5 -90.5t-92.5 -149t-137 -221.5q-6 -10 -16 -10q-9 0 -14.5 8.5
t1.5 19.5l327 527q7 7 15 7q9 0 14 -7.5t0 -15.5zM543 84q7 0 10.5 -4.5t3.5 -10.5t-3.5 -10.5t-10.5 -4.5h-33v-40q0 -6 -4.5 -10.5t-10.5 -4.5t-10 4.5t-4 10.5v40h-128q-9 0 -13 7t-1 14l124 255q2 6 8 8t11 -1q6 -2 8 -8t-1 -12l-113 -233h105v104q0 6 4 10.5t10 4.5
t10.5 -4.5t4.5 -10.5v-104h33z" />
    <glyph glyph-name="onehalf" unicode="&#xbd;" horiz-adv-x="578" 
d="M139 549v-306q0 -6 -4.5 -10t-10.5 -4t-10.5 4t-4.5 10v274l-52 -46q-5 -4 -11 -4t-10 5q-5 5 -4.5 10.5t5.5 10.5l77 67q4 4 9 4q6 0 11 -4.5t5 -10.5zM442 558q6 -4 8 -11t-3 -12l-325 -524q-7 -11 -16 -11t-14 9t2 20l325 524q5 6 12 7.5t11 -2.5zM518 29q14 0 14 -14
q0 -6 -4 -10.5t-10 -4.5h-165q-10 0 -13 9q-3 8 2 15q0 1 17 21t38.5 46t43 51t30.5 36q12 16 20.5 33t8.5 29q0 26 -16.5 45t-44.5 19q-26 0 -44 -17.5t-18 -43.5q0 -14 -14 -14q-6 0 -10.5 4t-4.5 10q0 38 26.5 64t64.5 26q37 0 63.5 -26t26.5 -64q0 -23 -11.5 -45.5
t-24.5 -37.5q-7 -8 -20 -24.5t-29 -35t-31.5 -38t-27.5 -33.5h133z" />
    <glyph glyph-name="threequarters" unicode="&#xbe;" horiz-adv-x="590" 
d="M176 410q20 -13 32.5 -33.5t12.5 -46.5q0 -19 -7.5 -36.5t-20 -30t-29.5 -20t-37 -7.5q-19 0 -36 7.5t-30 20t-20.5 30t-7.5 36.5q0 5 4 9.5t10 4.5t10.5 -4.5t4.5 -9.5q0 -27 19 -46.5t46 -19.5q28 0 47 19.5t19 46.5t-19 46t-47 19q-5 0 -9.5 4t-4.5 11q0 5 4.5 9
t9.5 4q24 0 41 17t17 41t-17 40.5t-41 16.5q-23 0 -40 -16.5t-17 -40.5q0 -14 -15 -14q-13 0 -13 14q0 36 25 61t60 25q36 0 61 -25t25 -61q0 -22 -10 -40.5t-27 -30.5zM462 541l-2 -3t-11 -18t-28.5 -46.5t-56 -90.5t-92.5 -149t-138 -221q-7 -12 -18 -12q-8 0 -13.5 8.5
t2.5 20.5l327 527q4 7 14 7q8 0 14.5 -6.5t1.5 -16.5zM551 84q6 0 10.5 -4.5t4.5 -10.5t-4.5 -10.5t-10.5 -4.5h-32v-39q0 -7 -4.5 -11t-10.5 -4q-15 0 -15 15v39h-128q-8 0 -13 7.5t0 13.5l123 256q2 5 8 7t12 0q5 -3 7 -9t-1 -11l-113 -234h105v105q0 14 15 14
q6 0 10.5 -4t4.5 -10v-105h32z" />
    <glyph glyph-name="questiondown" unicode="&#xbf;" horiz-adv-x="433" 
d="M283 525q0 -19 -13 -32t-32 -13t-32 13t-13 32t13 32t32 13t32 -13t13 -32zM262 405v-16q0 -50 -12.5 -88t-31 -68.5t-40.5 -56t-40.5 -51t-31 -53.5t-12.5 -63t10.5 -58t28.5 -37t41.5 -20t50.5 -6q38 0 77.5 8.5t72.5 19.5l9 -41q-37 -13 -78.5 -21t-80.5 -8
q-36 0 -68 8.5t-56 27.5t-38 50t-14 77q0 41 12.5 71.5t31 57t40.5 51t40.5 52.5t31 62.5t12.5 80.5v21h45z" />
    <glyph glyph-name="Agrave" unicode="&#xc0;" horiz-adv-x="600" 
d="M185 920h60l79 -125h-46zM19 0l258 710h46l258 -710h-42l-88 241h-303l-87 -241h-42zM300 658l-136 -375h272z" />
    <glyph glyph-name="Aacute" unicode="&#xc1;" horiz-adv-x="600" 
d="M321 795h-46l79 125h60zM19 0l258 710h46l258 -710h-42l-88 241h-303l-87 -241h-42zM300 658l-136 -375h272z" />
    <glyph glyph-name="Acircumflex" unicode="&#xc2;" horiz-adv-x="600" 
d="M236 795h-52l97 125h38l97 -125h-52l-64 82zM19 0l258 710h46l258 -710h-42l-88 241h-303l-87 -241h-42zM300 658l-136 -375h272z" />
    <glyph glyph-name="Atilde" unicode="&#xc3;" horiz-adv-x="600" 
d="M356 849q11 0 21 11t13 34l43 -11q-7 -35 -28 -55.5t-50 -20.5q-18 0 -33 7.5t-28.5 17t-25.5 17t-24 7.5t-22 -11t-13 -34l-43 11q7 35 28 55.5t50 20.5q17 0 31.5 -7.5t28 -17t26.5 -17t26 -7.5zM19 0l258 710h46l258 -710h-42l-88 241h-303l-87 -241h-42zM300 658
l-136 -375h272z" />
    <glyph glyph-name="Adieresis" unicode="&#xc4;" horiz-adv-x="600" 
d="M167 852q0 17 12 29t29 12t29 -12t12 -29t-12 -29t-29 -12t-29 12t-12 29zM351 852q0 17 12 29t29 12t29 -12t12 -29t-12 -29t-29 -12t-29 12t-12 29zM19 0l258 710h46l258 -710h-42l-88 241h-303l-87 -241h-42zM300 658l-136 -375h272z" />
    <glyph glyph-name="Aring" unicode="&#xc5;" horiz-adv-x="600" 
d="M231 858q0 31 19 50t49 19q31 0 50 -19t19 -50q0 -30 -19 -49t-50 -19q-30 0 -49 19t-19 49zM267 858q0 -32 32 -32q33 0 33 32q0 33 -33 33q-32 0 -32 -33zM19 0l258 710h46l258 -710h-42l-88 241h-303l-87 -241h-42zM300 658l-136 -375h272z" />
    <glyph glyph-name="AE" unicode="&#xc6;" horiz-adv-x="848" 
d="M458 668l11 -291h281v-42h-280l11 -293h326v-42h-371l-8 241h-277l-90 -241h-42l267 710h507v-42h-335zM167 283h259l-13 385h-101z" />
    <glyph glyph-name="Ccedilla" unicode="&#xc7;" horiz-adv-x="530" 
d="M279 -5q-49 5 -92 24t-74.5 55t-49.5 89.5t-18 128.5v95q0 81 20 142.5t56 103t86.5 63t110.5 21.5q39 0 80.5 -9.5t85.5 -32.5l-9 -39q-41 20 -81 29.5t-77 9.5q-47 0 -88.5 -16.5t-72 -51.5t-48.5 -89t-18 -128v-100q0 -67 18 -115.5t49 -79.5t72.5 -45.5t87.5 -14.5
q42 0 87 13.5t85 42.5l10 -40q-48 -32 -93 -44.5t-88 -13.5l-6 -33q29 -1 43 -17t14 -45q0 -31 -18 -53t-60 -22q-16 0 -33.5 3.5t-31.5 8.5l9 42q32 -12 56 -12q21 0 29.5 9t8.5 23q0 23 -25 23h-40z" />
    <glyph glyph-name="Egrave" unicode="&#xc8;" horiz-adv-x="510" 
d="M153 920h60l79 -125h-46zM64 0v710h391v-42h-346v-291h303v-42h-303v-293h360v-42h-405z" />
    <glyph glyph-name="Eacute" unicode="&#xc9;" horiz-adv-x="510" 
d="M286 795h-46l79 125h60zM64 0v710h391v-42h-346v-291h303v-42h-303v-293h360v-42h-405z" />
    <glyph glyph-name="Ecircumflex" unicode="&#xca;" horiz-adv-x="510" 
d="M202 795h-52l97 125h38l97 -125h-52l-64 82zM64 0v710h391v-42h-346v-291h303v-42h-303v-293h360v-42h-405z" />
    <glyph glyph-name="Edieresis" unicode="&#xcb;" horiz-adv-x="510" 
d="M133 852q0 17 12 29t29 12t29 -12t12 -29t-12 -29t-29 -12t-29 12t-12 29zM317 852q0 17 12 29t29 12t29 -12t12 -29t-12 -29t-29 -12t-29 12t-12 29zM64 0v710h391v-42h-346v-291h303v-42h-303v-293h360v-42h-405z" />
    <glyph glyph-name="Igrave" unicode="&#xcc;" horiz-adv-x="185" 
d="M-20 920h60l79 -125h-46zM115 0h-45v710h45v-710z" />
    <glyph glyph-name="Iacute" unicode="&#xcd;" horiz-adv-x="185" 
d="M115 795h-46l79 125h60zM115 0h-45v710h45v-710z" />
    <glyph glyph-name="Icircumflex" unicode="&#xce;" horiz-adv-x="185" 
d="M29 795h-52l97 125h38l97 -125h-52l-64 82zM115 0h-45v710h45v-710z" />
    <glyph glyph-name="Idieresis" unicode="&#xcf;" horiz-adv-x="185" 
d="M-40 852q0 17 12 29t29 12t29 -12t12 -29t-12 -29t-29 -12t-29 12t-12 29zM144 852q0 17 12 29t29 12t29 -12t12 -29t-12 -29t-29 -12t-29 12t-12 29zM115 0h-45v710h45v-710z" />
    <glyph glyph-name="Eth" unicode="&#xd0;" horiz-adv-x="590" 
d="M64 365v337q90 15 161 15q86 0 146.5 -29.5t98.5 -80.5t55 -119t17 -145q0 -71 -17 -133.5t-52.5 -109t-90.5 -73.5t-130 -27h-188v323h-64v42h64zM109 365h186v-42h-186v-281h143q62 0 108 21.5t76.5 61.5t45.5 95.5t15 122.5q0 77 -16 138.5t-49.5 104.5t-85 66
t-121.5 23q-26 0 -55 -2.5t-61 -8.5v-299z" />
    <glyph glyph-name="Ntilde" unicode="&#xd1;" horiz-adv-x="580" 
d="M356 849q11 0 21 11t13 34l43 -11q-7 -35 -28 -55.5t-50 -20.5q-18 0 -33 7.5t-28.5 17t-25.5 17t-24 7.5t-22 -11t-13 -34l-43 11q7 35 28 55.5t50 20.5q17 0 31.5 -7.5t28 -17t26.5 -17t26 -7.5zM109 634v-634h-45v710h54l353 -643v643h45v-710h-59z" />
    <glyph glyph-name="Ograve" unicode="&#xd2;" horiz-adv-x="636" 
d="M202 920h60l79 -125h-46zM316 -7q-65 0 -117 23.5t-88 67t-55.5 105t-19.5 137.5v58q0 76 19.5 137.5t55.5 105t88 67t117 23.5t117 -23.5t88 -67t55.5 -105t19.5 -137.5v-58q0 -76 -19.5 -137.5t-55.5 -105t-88 -67t-117 -23.5zM316 675q-57 0 -100.5 -22.5t-73.5 -61.5
t-45.5 -91.5t-15.5 -112.5v-64q0 -60 15.5 -112.5t45.5 -91.5t73.5 -61.5t100.5 -22.5t100.5 22.5t73.5 61.5t45.5 91.5t15.5 112.5v64q0 60 -15.5 112.5t-45.5 91.5t-73.5 61.5t-100.5 22.5z" />
    <glyph glyph-name="Oacute" unicode="&#xd3;" horiz-adv-x="636" 
d="M338 795h-46l79 125h60zM316 -7q-65 0 -117 23.5t-88 67t-55.5 105t-19.5 137.5v58q0 76 19.5 137.5t55.5 105t88 67t117 23.5t117 -23.5t88 -67t55.5 -105t19.5 -137.5v-58q0 -76 -19.5 -137.5t-55.5 -105t-88 -67t-117 -23.5zM316 675q-57 0 -100.5 -22.5t-73.5 -61.5
t-45.5 -91.5t-15.5 -112.5v-64q0 -60 15.5 -112.5t45.5 -91.5t73.5 -61.5t100.5 -22.5t100.5 22.5t73.5 61.5t45.5 91.5t15.5 112.5v64q0 60 -15.5 112.5t-45.5 91.5t-73.5 61.5t-100.5 22.5z" />
    <glyph glyph-name="Ocircumflex" unicode="&#xd4;" horiz-adv-x="636" 
d="M254 795h-52l97 125h38l97 -125h-52l-64 82zM316 -7q-65 0 -117 23.5t-88 67t-55.5 105t-19.5 137.5v58q0 76 19.5 137.5t55.5 105t88 67t117 23.5t117 -23.5t88 -67t55.5 -105t19.5 -137.5v-58q0 -76 -19.5 -137.5t-55.5 -105t-88 -67t-117 -23.5zM316 675
q-57 0 -100.5 -22.5t-73.5 -61.5t-45.5 -91.5t-15.5 -112.5v-64q0 -60 15.5 -112.5t45.5 -91.5t73.5 -61.5t100.5 -22.5t100.5 22.5t73.5 61.5t45.5 91.5t15.5 112.5v64q0 60 -15.5 112.5t-45.5 91.5t-73.5 61.5t-100.5 22.5z" />
    <glyph glyph-name="Otilde" unicode="&#xd5;" horiz-adv-x="636" 
d="M374 849q11 0 21 11t13 34l43 -11q-7 -35 -28 -55.5t-50 -20.5q-18 0 -33 7.5t-28.5 17t-25.5 17t-24 7.5t-22 -11t-13 -34l-43 11q7 35 28 55.5t50 20.5q17 0 31.5 -7.5t28 -17t26.5 -17t26 -7.5zM316 -7q-65 0 -117 23.5t-88 67t-55.5 105t-19.5 137.5v58
q0 76 19.5 137.5t55.5 105t88 67t117 23.5t117 -23.5t88 -67t55.5 -105t19.5 -137.5v-58q0 -76 -19.5 -137.5t-55.5 -105t-88 -67t-117 -23.5zM316 675q-57 0 -100.5 -22.5t-73.5 -61.5t-45.5 -91.5t-15.5 -112.5v-64q0 -60 15.5 -112.5t45.5 -91.5t73.5 -61.5t100.5 -22.5
t100.5 22.5t73.5 61.5t45.5 91.5t15.5 112.5v64q0 60 -15.5 112.5t-45.5 91.5t-73.5 61.5t-100.5 22.5z" />
    <glyph glyph-name="Odieresis" unicode="&#xd6;" horiz-adv-x="636" 
d="M185 852q0 17 12 29t29 12t29 -12t12 -29t-12 -29t-29 -12t-29 12t-12 29zM369 852q0 17 12 29t29 12t29 -12t12 -29t-12 -29t-29 -12t-29 12t-12 29zM316 -7q-65 0 -117 23.5t-88 67t-55.5 105t-19.5 137.5v58q0 76 19.5 137.5t55.5 105t88 67t117 23.5t117 -23.5
t88 -67t55.5 -105t19.5 -137.5v-58q0 -76 -19.5 -137.5t-55.5 -105t-88 -67t-117 -23.5zM316 675q-57 0 -100.5 -22.5t-73.5 -61.5t-45.5 -91.5t-15.5 -112.5v-64q0 -60 15.5 -112.5t45.5 -91.5t73.5 -61.5t100.5 -22.5t100.5 22.5t73.5 61.5t45.5 91.5t15.5 112.5v64
q0 60 -15.5 112.5t-45.5 91.5t-73.5 61.5t-100.5 22.5z" />
    <glyph glyph-name="Oslash" unicode="&#xd8;" horiz-adv-x="636" 
d="M316 -7q-55 0 -103 17l-39 -110h-41l45 127q-68 38 -105 115.5t-37 183.5v58q0 76 19.5 137.5t55.5 105t88 67t117 23.5q58 0 104 -18l40 111h41l-46 -128q67 -39 104 -115.5t37 -182.5v-58q0 -76 -19.5 -137.5t-55.5 -105t-88 -67t-117 -23.5zM316 675
q-57 0 -100.5 -22.5t-73.5 -61.5t-45.5 -91.5t-15.5 -112.5v-64q0 -83 28.5 -150t84.5 -103l211 587q-20 8 -42 13t-47 5zM551 387q0 82 -28.5 148.5t-83.5 103.5l-211 -587q40 -17 88 -17q57 0 100.5 22.5t73.5 61.5t45.5 91.5t15.5 112.5v64z" />
    <glyph glyph-name="Ugrave" unicode="&#xd9;" horiz-adv-x="633" 
d="M201 920h60l79 -125h-46zM572 241q0 -65 -22.5 -112t-58.5 -77t-82 -44.5t-93 -14.5t-93 14.5t-82 44.5t-58 77t-22 112v469h45v-469q0 -55 18 -94t48 -64t67.5 -36.5t76.5 -11.5t77 11.5t67.5 36.5t48 64t18.5 94v469h45v-469z" />
    <glyph glyph-name="Uacute" unicode="&#xda;" horiz-adv-x="633" 
d="M337 795h-46l79 125h60zM572 241q0 -65 -22.5 -112t-58.5 -77t-82 -44.5t-93 -14.5t-93 14.5t-82 44.5t-58 77t-22 112v469h45v-469q0 -55 18 -94t48 -64t67.5 -36.5t76.5 -11.5t77 11.5t67.5 36.5t48 64t18.5 94v469h45v-469z" />
    <glyph glyph-name="Ucircumflex" unicode="&#xdb;" horiz-adv-x="633" 
d="M252 795h-52l97 125h38l97 -125h-52l-64 82zM572 241q0 -65 -22.5 -112t-58.5 -77t-82 -44.5t-93 -14.5t-93 14.5t-82 44.5t-58 77t-22 112v469h45v-469q0 -55 18 -94t48 -64t67.5 -36.5t76.5 -11.5t77 11.5t67.5 36.5t48 64t18.5 94v469h45v-469z" />
    <glyph glyph-name="Udieresis" unicode="&#xdc;" horiz-adv-x="633" 
d="M183 852q0 17 12 29t29 12t29 -12t12 -29t-12 -29t-29 -12t-29 12t-12 29zM367 852q0 17 12 29t29 12t29 -12t12 -29t-12 -29t-29 -12t-29 12t-12 29zM572 241q0 -65 -22.5 -112t-58.5 -77t-82 -44.5t-93 -14.5t-93 14.5t-82 44.5t-58 77t-22 112v469h45v-469
q0 -55 18 -94t48 -64t67.5 -36.5t76.5 -11.5t77 11.5t67.5 36.5t48 64t18.5 94v469h45v-469z" />
    <glyph glyph-name="Yacute" unicode="&#xdd;" horiz-adv-x="561" 
d="M301 795h-46l79 125h60zM500 710h49l-246 -424v-286h-45v286l-246 424h49l219 -379z" />
    <glyph glyph-name="Thorn" unicode="&#xde;" horiz-adv-x="509" 
d="M64 710h45v-136q27 5 53 8t50 3q61 0 109.5 -14.5t83 -41.5t53 -67t18.5 -91q0 -43 -14 -81t-42.5 -66t-71.5 -44t-101 -16h-138v-164h-45v710zM109 206h138q88 0 136 44t48 121q0 50 -19.5 83t-50.5 53t-70.5 28t-79.5 8q-55 0 -102 -14v-323z" />
    <glyph glyph-name="germandbls" unicode="&#xdf;" horiz-adv-x="464" 
d="M251 390q39 -23 72 -45t57 -49t37 -62.5t13 -84.5q0 -78 -35.5 -117t-98.5 -39q-28 0 -57.5 6t-55.5 17l6 47q24 -13 50.5 -20.5t51.5 -7.5q42 0 68 27t26 87q0 39 -10.5 66.5t-32.5 51t-54.5 46t-77.5 51.5v40l109 268q-28 12 -55.5 19t-53.5 7q-22 0 -41.5 -6.5
t-34 -20.5t-22.5 -36.5t-8 -54.5v-580h-45v585q0 41 11.5 70.5t32 48t48 27.5t59.5 9q38 0 80.5 -12.5t83.5 -35.5z" />
    <glyph glyph-name="agrave" unicode="&#xe0;" horiz-adv-x="443" 
d="M108 710h60l79 -125h-46zM339 64q-30 -30 -75.5 -50.5t-93.5 -20.5q-35 0 -61 11.5t-42.5 30.5t-24.5 44t-8 51q0 29 9.5 55.5t30 47t52 34t75.5 16.5l138 9v58q0 33 -11 55t-29 35.5t-41.5 19t-48.5 5.5q-36 0 -72 -9.5t-68 -21.5l-5 43q36 15 74 22.5t73 7.5
q34 0 65.5 -8.5t55.5 -27t38 -48t14 -70.5v-353h-40zM202 241q-33 -2 -56 -12t-38 -25t-22 -33.5t-7 -39.5q0 -19 5 -36t16 -30.5t28 -21.5t42 -8q48 0 93.5 21.5t75.5 50.5v144z" />
    <glyph glyph-name="aacute" unicode="&#xe1;" horiz-adv-x="443" 
d="M243 585h-46l79 125h60zM339 64q-30 -30 -75.5 -50.5t-93.5 -20.5q-35 0 -61 11.5t-42.5 30.5t-24.5 44t-8 51q0 29 9.5 55.5t30 47t52 34t75.5 16.5l138 9v58q0 33 -11 55t-29 35.5t-41.5 19t-48.5 5.5q-36 0 -72 -9.5t-68 -21.5l-5 43q36 15 74 22.5t73 7.5
q34 0 65.5 -8.5t55.5 -27t38 -48t14 -70.5v-353h-40zM202 241q-33 -2 -56 -12t-38 -25t-22 -33.5t-7 -39.5q0 -19 5 -36t16 -30.5t28 -21.5t42 -8q48 0 93.5 21.5t75.5 50.5v144z" />
    <glyph glyph-name="acircumflex" unicode="&#xe2;" horiz-adv-x="443" 
d="M157 585h-52l97 125h38l97 -125h-52l-64 82zM339 64q-30 -30 -75.5 -50.5t-93.5 -20.5q-35 0 -61 11.5t-42.5 30.5t-24.5 44t-8 51q0 29 9.5 55.5t30 47t52 34t75.5 16.5l138 9v58q0 33 -11 55t-29 35.5t-41.5 19t-48.5 5.5q-36 0 -72 -9.5t-68 -21.5l-5 43
q36 15 74 22.5t73 7.5q34 0 65.5 -8.5t55.5 -27t38 -48t14 -70.5v-353h-40zM202 241q-33 -2 -56 -12t-38 -25t-22 -33.5t-7 -39.5q0 -19 5 -36t16 -30.5t28 -21.5t42 -8q48 0 93.5 21.5t75.5 50.5v144z" />
    <glyph glyph-name="atilde" unicode="&#xe3;" horiz-adv-x="443" 
d="M278 639q11 0 21 11t13 34l43 -11q-7 -35 -28 -55.5t-50 -20.5q-18 0 -33 7.5t-28.5 17t-25.5 17t-24 7.5t-22 -11t-13 -34l-43 11q7 35 28 55.5t50 20.5q17 0 31.5 -7.5t28 -17t26.5 -17t26 -7.5zM339 64q-30 -30 -75.5 -50.5t-93.5 -20.5q-35 0 -61 11.5t-42.5 30.5
t-24.5 44t-8 51q0 29 9.5 55.5t30 47t52 34t75.5 16.5l138 9v58q0 33 -11 55t-29 35.5t-41.5 19t-48.5 5.5q-36 0 -72 -9.5t-68 -21.5l-5 43q36 15 74 22.5t73 7.5q34 0 65.5 -8.5t55.5 -27t38 -48t14 -70.5v-353h-40zM202 241q-33 -2 -56 -12t-38 -25t-22 -33.5t-7 -39.5
q0 -19 5 -36t16 -30.5t28 -21.5t42 -8q48 0 93.5 21.5t75.5 50.5v144z" />
    <glyph glyph-name="adieresis" unicode="&#xe4;" horiz-adv-x="443" 
d="M88 642q0 17 12 29t29 12t29 -12t12 -29t-12 -29t-29 -12t-29 12t-12 29zM272 642q0 17 12 29t29 12t29 -12t12 -29t-12 -29t-29 -12t-29 12t-12 29zM339 64q-30 -30 -75.5 -50.5t-93.5 -20.5q-35 0 -61 11.5t-42.5 30.5t-24.5 44t-8 51q0 29 9.5 55.5t30 47t52 34
t75.5 16.5l138 9v58q0 33 -11 55t-29 35.5t-41.5 19t-48.5 5.5q-36 0 -72 -9.5t-68 -21.5l-5 43q36 15 74 22.5t73 7.5q34 0 65.5 -8.5t55.5 -27t38 -48t14 -70.5v-353h-40zM202 241q-33 -2 -56 -12t-38 -25t-22 -33.5t-7 -39.5q0 -19 5 -36t16 -30.5t28 -21.5t42 -8
q48 0 93.5 21.5t75.5 50.5v144z" />
    <glyph glyph-name="aring" unicode="&#xe5;" horiz-adv-x="443" 
d="M153 648q0 31 19 50t49 19q31 0 50 -19t19 -50q0 -30 -19 -49t-50 -19q-30 0 -49 19t-19 49zM189 648q0 -32 32 -32q33 0 33 32q0 33 -33 33q-32 0 -32 -33zM339 64q-30 -30 -75.5 -50.5t-93.5 -20.5q-35 0 -61 11.5t-42.5 30.5t-24.5 44t-8 51q0 29 9.5 55.5t30 47
t52 34t75.5 16.5l138 9v58q0 33 -11 55t-29 35.5t-41.5 19t-48.5 5.5q-36 0 -72 -9.5t-68 -21.5l-5 43q36 15 74 22.5t73 7.5q34 0 65.5 -8.5t55.5 -27t38 -48t14 -70.5v-353h-40zM202 241q-33 -2 -56 -12t-38 -25t-22 -33.5t-7 -39.5q0 -19 5 -36t16 -30.5t28 -21.5t42 -8
q48 0 93.5 21.5t75.5 50.5v144z" />
    <glyph glyph-name="ae" unicode="&#xe6;" horiz-adv-x="734" 
d="M365 219q4 -89 46.5 -136.5t124.5 -47.5q29 0 58.5 8.5t64.5 24.5l6 -43q-34 -17 -66.5 -24.5t-62.5 -7.5q-59 0 -101.5 20t-69.5 57q-43 -35 -92.5 -56t-100.5 -21q-61 0 -99.5 32t-38.5 105q0 29 9.5 55.5t30 47t52 34t75.5 16.5l122 8q8 53 25 92q-15 45 -53.5 63.5
t-85.5 18.5q-36 0 -73 -8.5t-67 -22.5l-5 43q35 14 72.5 22t74.5 8q49 0 92 -17.5t72 -59.5q29 38 67.5 57.5t82.5 19.5q34 0 65.5 -13t56 -39t39 -65t14.5 -91q0 -40 -10 -80h-325zM524 465q-30 0 -57.5 -13t-49 -38.5t-35.5 -63.5t-17 -89h287q3 20 3 38q0 41 -11 72
t-29 52t-41.5 31.5t-49.5 10.5zM175 35q48 0 93.5 21t78.5 45q-27 56 -27 135v13l-118 -8q-33 -2 -56 -12t-38 -25t-22 -33.5t-7 -39.5q0 -53 26 -74.5t70 -21.5z" />
    <glyph glyph-name="ccedilla" unicode="&#xe7;" horiz-adv-x="425" 
d="M217 -4q-81 11 -130 70.5t-49 161.5v29q0 59 16 105.5t44.5 78.5t68.5 49t89 17q59 0 124 -25l-5 -43q-32 13 -60 19.5t-56 6.5q-39 0 -71.5 -12.5t-55.5 -38t-36 -65t-13 -92.5v-29q0 -47 13 -83t36 -60.5t54.5 -37t68.5 -12.5q33 0 63 9t67 29l5 -43q-35 -19 -67 -27.5
t-67 -9.5l-6 -33q29 -1 43 -17t14 -45q0 -31 -18 -53t-60 -22q-16 0 -33.5 3.5t-31.5 8.5l9 42q32 -12 56 -12q21 0 29.5 9t8.5 23q0 23 -25 23h-40z" />
    <glyph glyph-name="egrave" unicode="&#xe8;" horiz-adv-x="454" 
d="M116 710h60l79 -125h-46zM85 219q4 -89 46.5 -136.5t124.5 -47.5q29 0 58.5 8.5t64.5 24.5l6 -43q-34 -17 -66.5 -24.5t-62.5 -7.5q-54 0 -94.5 17.5t-67.5 49.5t-40.5 76.5t-13.5 99.5q0 68 17 118.5t45 84.5t65.5 51t77.5 17q34 0 65.5 -13t56 -39t39 -65t14.5 -91
q0 -40 -10 -80h-325zM244 465q-30 0 -57.5 -13t-49 -38.5t-35.5 -63.5t-17 -89h287q3 20 3 38q0 41 -11 72t-29 52t-41.5 31.5t-49.5 10.5z" />
    <glyph glyph-name="eacute" unicode="&#xe9;" horiz-adv-x="454" 
d="M249 585h-46l79 125h60zM85 219q4 -89 46.5 -136.5t124.5 -47.5q29 0 58.5 8.5t64.5 24.5l6 -43q-34 -17 -66.5 -24.5t-62.5 -7.5q-54 0 -94.5 17.5t-67.5 49.5t-40.5 76.5t-13.5 99.5q0 68 17 118.5t45 84.5t65.5 51t77.5 17q34 0 65.5 -13t56 -39t39 -65t14.5 -91
q0 -40 -10 -80h-325zM244 465q-30 0 -57.5 -13t-49 -38.5t-35.5 -63.5t-17 -89h287q3 20 3 38q0 41 -11 72t-29 52t-41.5 31.5t-49.5 10.5z" />
    <glyph glyph-name="ecircumflex" unicode="&#xea;" horiz-adv-x="454" 
d="M165 585h-52l97 125h38l97 -125h-52l-64 82zM85 219q4 -89 46.5 -136.5t124.5 -47.5q29 0 58.5 8.5t64.5 24.5l6 -43q-34 -17 -66.5 -24.5t-62.5 -7.5q-54 0 -94.5 17.5t-67.5 49.5t-40.5 76.5t-13.5 99.5q0 68 17 118.5t45 84.5t65.5 51t77.5 17q34 0 65.5 -13t56 -39
t39 -65t14.5 -91q0 -40 -10 -80h-325zM244 465q-30 0 -57.5 -13t-49 -38.5t-35.5 -63.5t-17 -89h287q3 20 3 38q0 41 -11 72t-29 52t-41.5 31.5t-49.5 10.5z" />
    <glyph glyph-name="edieresis" unicode="&#xeb;" horiz-adv-x="454" 
d="M99 642q0 17 12 29t29 12t29 -12t12 -29t-12 -29t-29 -12t-29 12t-12 29zM283 642q0 17 12 29t29 12t29 -12t12 -29t-12 -29t-29 -12t-29 12t-12 29zM85 219q4 -89 46.5 -136.5t124.5 -47.5q29 0 58.5 8.5t64.5 24.5l6 -43q-34 -17 -66.5 -24.5t-62.5 -7.5
q-54 0 -94.5 17.5t-67.5 49.5t-40.5 76.5t-13.5 99.5q0 68 17 118.5t45 84.5t65.5 51t77.5 17q34 0 65.5 -13t56 -39t39 -65t14.5 -91q0 -40 -10 -80h-325zM244 465q-30 0 -57.5 -13t-49 -38.5t-35.5 -63.5t-17 -89h287q3 20 3 38q0 41 -11 72t-29 52t-41.5 31.5t-49.5 10.5
z" />
    <glyph glyph-name="igrave" unicode="&#xec;" horiz-adv-x="198" 
d="M-17 710h60l79 -125h-46zM89 430q0 15 -6 21.5t-21 6.5h-32v42h34q38 0 54 -15.5t16 -53.5v-431h-45v430z" />
    <glyph glyph-name="iacute" unicode="&#xed;" horiz-adv-x="198" 
d="M119 585h-46l79 125h60zM89 430q0 15 -6 21.5t-21 6.5h-32v42h34q38 0 54 -15.5t16 -53.5v-431h-45v430z" />
    <glyph glyph-name="icircumflex" unicode="&#xee;" horiz-adv-x="198" 
d="M35 585h-52l97 125h38l97 -125h-52l-64 82zM89 430q0 15 -6 21.5t-21 6.5h-32v42h34q38 0 54 -15.5t16 -53.5v-431h-45v430z" />
    <glyph glyph-name="idieresis" unicode="&#xef;" horiz-adv-x="198" 
d="M-34 642q0 17 12 29t29 12t29 -12t12 -29t-12 -29t-29 -12t-29 12t-12 29zM150 642q0 17 12 29t29 12t29 -12t12 -29t-12 -29t-29 -12t-29 12t-12 29zM89 430q0 15 -6 21.5t-21 6.5h-32v42h34q38 0 54 -15.5t16 -53.5v-431h-45v430z" />
    <glyph glyph-name="eth" unicode="&#xf0;" horiz-adv-x="455" 
d="M314 669q47 -39 64.5 -103t17.5 -149v-365q-48 -29 -94.5 -44t-91.5 -15q-78 0 -122.5 50.5t-44.5 167.5v75q0 109 43.5 165t116.5 56q43 0 80 -19t68 -61q0 71 -14.5 123t-52.5 85l-45 -50h-56l66 74q-17 8 -37.5 14.5t-44.5 11.5l31 32q23 -4 43 -10.5t37 -14.5l41 45
h56zM351 372q-31 42 -69.5 67.5t-76.5 25.5q-57 0 -87 -43.5t-30 -136.5v-74q0 -96 30.5 -136t91.5 -40q63 0 141 40v297z" />
    <glyph glyph-name="ntilde" unicode="&#xf1;" horiz-adv-x="469" 
d="M297 639q11 0 21 11t13 34l43 -11q-7 -35 -28 -55.5t-50 -20.5q-18 0 -33 7.5t-28.5 17t-25.5 17t-24 7.5t-22 -11t-13 -34l-43 11q7 35 28 55.5t50 20.5q17 0 31.5 -7.5t28 -17t26.5 -17t26 -7.5zM104 0h-45v500h40l5 -99q15 19 35 38t43 34t49 24.5t54 9.5
q26 0 48.5 -7t39.5 -23t27 -40t10 -59v-378h-45v378q0 45 -20 66t-60 21q-25 0 -50.5 -10.5t-49.5 -27t-44.5 -37t-36.5 -40.5v-350z" />
    <glyph glyph-name="ograve" unicode="&#xf2;" horiz-adv-x="500" 
d="M136 710h60l79 -125h-46zM250 -7q-60 0 -101 19.5t-65.5 52.5t-35.5 76t-11 90v38q0 47 11 90t35.5 76t65.5 52.5t101 19.5t101 -19.5t65.5 -52.5t35.5 -76t11 -90v-38q0 -47 -11 -90t-35.5 -76t-65.5 -52.5t-101 -19.5zM250 35q45 0 77 15t52 42t29.5 63.5t9.5 79.5v30
q0 43 -9.5 79.5t-29.5 63.5t-52 42t-77 15t-77 -15t-52 -42t-29.5 -63.5t-9.5 -79.5v-30q0 -43 9.5 -79.5t29.5 -63.5t52 -42t77 -15z" />
    <glyph glyph-name="oacute" unicode="&#xf3;" horiz-adv-x="500" 
d="M271 585h-46l79 125h60zM250 -7q-60 0 -101 19.5t-65.5 52.5t-35.5 76t-11 90v38q0 47 11 90t35.5 76t65.5 52.5t101 19.5t101 -19.5t65.5 -52.5t35.5 -76t11 -90v-38q0 -47 -11 -90t-35.5 -76t-65.5 -52.5t-101 -19.5zM250 35q45 0 77 15t52 42t29.5 63.5t9.5 79.5v30
q0 43 -9.5 79.5t-29.5 63.5t-52 42t-77 15t-77 -15t-52 -42t-29.5 -63.5t-9.5 -79.5v-30q0 -43 9.5 -79.5t29.5 -63.5t52 -42t77 -15z" />
    <glyph glyph-name="ocircumflex" unicode="&#xf4;" horiz-adv-x="500" 
d="M186 585h-52l97 125h38l97 -125h-52l-64 82zM250 -7q-60 0 -101 19.5t-65.5 52.5t-35.5 76t-11 90v38q0 47 11 90t35.5 76t65.5 52.5t101 19.5t101 -19.5t65.5 -52.5t35.5 -76t11 -90v-38q0 -47 -11 -90t-35.5 -76t-65.5 -52.5t-101 -19.5zM250 35q45 0 77 15t52 42
t29.5 63.5t9.5 79.5v30q0 43 -9.5 79.5t-29.5 63.5t-52 42t-77 15t-77 -15t-52 -42t-29.5 -63.5t-9.5 -79.5v-30q0 -43 9.5 -79.5t29.5 -63.5t52 -42t77 -15z" />
    <glyph glyph-name="otilde" unicode="&#xf5;" horiz-adv-x="500" 
d="M306 639q11 0 21 11t13 34l43 -11q-7 -35 -28 -55.5t-50 -20.5q-18 0 -33 7.5t-28.5 17t-25.5 17t-24 7.5t-22 -11t-13 -34l-43 11q7 35 28 55.5t50 20.5q17 0 31.5 -7.5t28 -17t26.5 -17t26 -7.5zM250 -7q-60 0 -101 19.5t-65.5 52.5t-35.5 76t-11 90v38q0 47 11 90
t35.5 76t65.5 52.5t101 19.5t101 -19.5t65.5 -52.5t35.5 -76t11 -90v-38q0 -47 -11 -90t-35.5 -76t-65.5 -52.5t-101 -19.5zM250 35q45 0 77 15t52 42t29.5 63.5t9.5 79.5v30q0 43 -9.5 79.5t-29.5 63.5t-52 42t-77 15t-77 -15t-52 -42t-29.5 -63.5t-9.5 -79.5v-30
q0 -43 9.5 -79.5t29.5 -63.5t52 -42t77 -15z" />
    <glyph glyph-name="odieresis" unicode="&#xf6;" horiz-adv-x="500" 
d="M117 642q0 17 12 29t29 12t29 -12t12 -29t-12 -29t-29 -12t-29 12t-12 29zM301 642q0 17 12 29t29 12t29 -12t12 -29t-12 -29t-29 -12t-29 12t-12 29zM250 -7q-60 0 -101 19.5t-65.5 52.5t-35.5 76t-11 90v38q0 47 11 90t35.5 76t65.5 52.5t101 19.5t101 -19.5
t65.5 -52.5t35.5 -76t11 -90v-38q0 -47 -11 -90t-35.5 -76t-65.5 -52.5t-101 -19.5zM250 35q45 0 77 15t52 42t29.5 63.5t9.5 79.5v30q0 43 -9.5 79.5t-29.5 63.5t-52 42t-77 15t-77 -15t-52 -42t-29.5 -63.5t-9.5 -79.5v-30q0 -43 9.5 -79.5t29.5 -63.5t52 -42t77 -15z" />
    <glyph glyph-name="oslash" unicode="&#xf8;" horiz-adv-x="500" 
d="M250 -7q-20 0 -36.5 2t-32.5 6l-36 -101h-41l41 114q-30 15 -50.5 37.5t-33.5 51t-18.5 61.5t-5.5 67v38q0 47 11 90t35.5 76t65.5 52.5t101 19.5q38 0 68 -9l38 104h41l-42 -117q30 -14 50.5 -36.5t33 -51t18.5 -61t6 -67.5v-38q0 -47 -11 -90t-35.5 -76t-65.5 -52.5
t-101 -19.5zM82 235q0 -60 18 -107t60 -71l144 401q-12 3 -25.5 5t-28.5 2q-45 0 -77 -15t-52 -42t-29.5 -63.5t-9.5 -79.5v-30zM250 35q45 0 77 15t52 42t29.5 63.5t9.5 79.5v30q0 60 -18.5 106.5t-59.5 71.5l-144 -401q22 -7 54 -7z" />
    <glyph glyph-name="ugrave" unicode="&#xf9;" horiz-adv-x="469" 
d="M122 710h60l79 -125h-46zM365 500h45v-500h-40l-5 90q-15 -19 -35 -36.5t-43 -31t-49 -21.5t-54 -8q-25 0 -48 7.5t-40 24t-27 41.5t-10 59v375h45v-375q0 -90 80 -90q25 0 50.5 9t49.5 24t44.5 34t36.5 39v359z" />
    <glyph glyph-name="uacute" unicode="&#xfa;" horiz-adv-x="469" 
d="M259 585h-46l79 125h60zM365 500h45v-500h-40l-5 90q-15 -19 -35 -36.5t-43 -31t-49 -21.5t-54 -8q-25 0 -48 7.5t-40 24t-27 41.5t-10 59v375h45v-375q0 -90 80 -90q25 0 50.5 9t49.5 24t44.5 34t36.5 39v359z" />
    <glyph glyph-name="ucircumflex" unicode="&#xfb;" horiz-adv-x="469" 
d="M173 585h-52l97 125h38l97 -125h-52l-64 82zM365 500h45v-500h-40l-5 90q-15 -19 -35 -36.5t-43 -31t-49 -21.5t-54 -8q-25 0 -48 7.5t-40 24t-27 41.5t-10 59v375h45v-375q0 -90 80 -90q25 0 50.5 9t49.5 24t44.5 34t36.5 39v359z" />
    <glyph glyph-name="udieresis" unicode="&#xfc;" horiz-adv-x="469" 
d="M103 642q0 17 12 29t29 12t29 -12t12 -29t-12 -29t-29 -12t-29 12t-12 29zM287 642q0 17 12 29t29 12t29 -12t12 -29t-12 -29t-29 -12t-29 12t-12 29zM365 500h45v-500h-40l-5 90q-15 -19 -35 -36.5t-43 -31t-49 -21.5t-54 -8q-25 0 -48 7.5t-40 24t-27 41.5t-10 59v375
h45v-375q0 -90 80 -90q25 0 50.5 9t49.5 24t44.5 34t36.5 39v359z" />
    <glyph glyph-name="yacute" unicode="&#xfd;" horiz-adv-x="478" 
d="M265 585h-46l79 125h60zM409 500h49l-244 -622q-17 -45 -46 -65t-65 -20q-41 0 -89 28l5 43q43 -29 84 -29q25 0 43.5 13t29.5 43l42 109l-198 500h49l171 -443z" />
    <glyph glyph-name="thorn" unicode="&#xfe;" horiz-adv-x="477" 
d="M59 733h45v-306q34 42 73.5 61t78.5 19q35 0 67 -14.5t56.5 -42t39 -69t14.5 -95.5v-71q0 -60 -15 -102.5t-41 -69t-62 -38.5t-77 -12q-64 0 -134 26v-219h-45v933zM104 65q35 -14 69 -22t65 -8q68 0 109 41.5t41 138.5v70q0 46 -11 80t-29 56t-42.5 33t-51.5 11
q-38 0 -78 -22.5t-72 -68.5v-309z" />
    <glyph glyph-name="ydieresis" unicode="&#xff;" horiz-adv-x="478" 
d="M106 642q0 17 12 29t29 12t29 -12t12 -29t-12 -29t-29 -12t-29 12t-12 29zM290 642q0 17 12 29t29 12t29 -12t12 -29t-12 -29t-29 -12t-29 12t-12 29zM409 500h49l-244 -622q-17 -45 -46 -65t-65 -20q-41 0 -89 28l5 43q43 -29 84 -29q25 0 43.5 13t29.5 43l42 109
l-198 500h49l171 -443z" />
    <glyph glyph-name="Amacron" unicode="&#x100;" horiz-adv-x="600" 
d="M437 837v-42h-274v42h274zM19 0l258 710h46l258 -710h-42l-88 241h-303l-87 -241h-42zM300 658l-136 -375h272z" />
    <glyph glyph-name="amacron" unicode="&#x101;" horiz-adv-x="443" 
d="M358 627v-42h-274v42h274zM339 64q-30 -30 -75.5 -50.5t-93.5 -20.5q-35 0 -61 11.5t-42.5 30.5t-24.5 44t-8 51q0 29 9.5 55.5t30 47t52 34t75.5 16.5l138 9v58q0 33 -11 55t-29 35.5t-41.5 19t-48.5 5.5q-36 0 -72 -9.5t-68 -21.5l-5 43q36 15 74 22.5t73 7.5
q34 0 65.5 -8.5t55.5 -27t38 -48t14 -70.5v-353h-40zM202 241q-33 -2 -56 -12t-38 -25t-22 -33.5t-7 -39.5q0 -19 5 -36t16 -30.5t28 -21.5t42 -8q48 0 93.5 21.5t75.5 50.5v144z" />
    <glyph glyph-name="Abreve" unicode="&#x102;" horiz-adv-x="600" 
d="M205 920h42v-49q0 -19 15 -27.5t37 -8.5q15 0 28.5 3.5t25.5 8.5v73h42v-95q-26 -15 -48.5 -22.5t-48.5 -7.5q-37 0 -65 17.5t-28 55.5v52zM19 0l258 710h46l258 -710h-42l-88 241h-303l-87 -241h-42zM300 658l-136 -375h272z" />
    <glyph glyph-name="abreve" unicode="&#x103;" horiz-adv-x="443" 
d="M126 710h42v-49q0 -19 15 -27.5t37 -8.5q15 0 28.5 3.5t25.5 8.5v73h42v-95q-26 -15 -48.5 -22.5t-48.5 -7.5q-37 0 -65 17.5t-28 55.5v52zM339 64q-30 -30 -75.5 -50.5t-93.5 -20.5q-35 0 -61 11.5t-42.5 30.5t-24.5 44t-8 51q0 29 9.5 55.5t30 47t52 34t75.5 16.5
l138 9v58q0 33 -11 55t-29 35.5t-41.5 19t-48.5 5.5q-36 0 -72 -9.5t-68 -21.5l-5 43q36 15 74 22.5t73 7.5q34 0 65.5 -8.5t55.5 -27t38 -48t14 -70.5v-353h-40zM202 241q-33 -2 -56 -12t-38 -25t-22 -33.5t-7 -39.5q0 -19 5 -36t16 -30.5t28 -21.5t42 -8q48 0 93.5 21.5
t75.5 50.5v144z" />
    <glyph glyph-name="Aogonek" unicode="&#x104;" horiz-adv-x="600" 
d="M451 241h-303l-87 -241h-42l258 710h46l258 -710q-31 -22 -51 -45t-20 -52q0 -40 40 -40q17 0 38 9l6 -39q-24 -10 -46 -10q-33 0 -56 19.5t-23 56.5q0 36 20.5 60t49.5 41zM300 658l-136 -375h272z" />
    <glyph glyph-name="aogonek" unicode="&#x105;" horiz-adv-x="443" 
d="M339 64q-30 -30 -75.5 -50.5t-93.5 -20.5q-35 0 -61 11.5t-42.5 30.5t-24.5 44t-8 51q0 29 9.5 55.5t30 47t52 34t75.5 16.5l138 9v58q0 33 -11 55t-29 35.5t-41.5 19t-48.5 5.5q-36 0 -72 -9.5t-68 -21.5l-5 43q36 15 74 22.5t73 7.5q34 0 65.5 -8.5t55.5 -27t38 -48
t14 -70.5v-353q-31 -22 -51 -45t-20 -52q0 -40 40 -40q17 0 38 9l6 -39q-24 -10 -46 -10q-33 0 -56 19.5t-23 56.5q0 36 21.5 60t50.5 41zM202 241q-33 -2 -56 -12t-38 -25t-22 -33.5t-7 -39.5q0 -19 5 -36t16 -30.5t28 -21.5t42 -8q48 0 93.5 21.5t75.5 50.5v144z" />
    <glyph glyph-name="Cacute" unicode="&#x106;" horiz-adv-x="530" 
d="M325 795h-46l79 125h60zM499 51q-48 -32 -93.5 -45t-88.5 -13q-56 0 -105.5 16t-86.5 51.5t-58.5 92.5t-21.5 139v95q0 81 20 142.5t56 103t86.5 63t110.5 21.5q39 0 80.5 -9.5t85.5 -32.5l-9 -39q-41 20 -81 29.5t-77 9.5q-47 0 -88.5 -16.5t-72 -51.5t-48.5 -89
t-18 -128v-100q0 -67 18 -115.5t49 -79.5t72.5 -45.5t87.5 -14.5q42 0 87 13.5t85 42.5z" />
    <glyph glyph-name="cacute" unicode="&#x107;" horiz-adv-x="425" 
d="M265 585h-46l79 125h60zM390 30q-35 -19 -67.5 -28t-67.5 -9q-48 0 -87.5 15.5t-68.5 45.5t-45 74t-16 100v29q0 59 16 105.5t44.5 78.5t68.5 49t89 17q59 0 124 -25l-5 -43q-32 13 -60 19.5t-56 6.5q-39 0 -71.5 -12.5t-55.5 -38t-36 -65t-13 -92.5v-29q0 -47 13 -83
t36 -60.5t54.5 -37t68.5 -12.5q33 0 63 9t67 29z" />
    <glyph glyph-name="Ccircumflex" unicode="&#x108;" horiz-adv-x="530" 
d="M241 795h-52l97 125h38l97 -125h-52l-64 82zM499 51q-48 -32 -93.5 -45t-88.5 -13q-56 0 -105.5 16t-86.5 51.5t-58.5 92.5t-21.5 139v95q0 81 20 142.5t56 103t86.5 63t110.5 21.5q39 0 80.5 -9.5t85.5 -32.5l-9 -39q-41 20 -81 29.5t-77 9.5q-47 0 -88.5 -16.5
t-72 -51.5t-48.5 -89t-18 -128v-100q0 -67 18 -115.5t49 -79.5t72.5 -45.5t87.5 -14.5q42 0 87 13.5t85 42.5z" />
    <glyph glyph-name="ccircumflex" unicode="&#x109;" horiz-adv-x="425" 
d="M182 585h-52l97 125h38l97 -125h-52l-64 82zM390 30q-35 -19 -67.5 -28t-67.5 -9q-48 0 -87.5 15.5t-68.5 45.5t-45 74t-16 100v29q0 59 16 105.5t44.5 78.5t68.5 49t89 17q59 0 124 -25l-5 -43q-32 13 -60 19.5t-56 6.5q-39 0 -71.5 -12.5t-55.5 -38t-36 -65t-13 -92.5
v-29q0 -47 13 -83t36 -60.5t54.5 -37t68.5 -12.5q33 0 63 9t67 29z" />
    <glyph glyph-name="Cdotaccent" unicode="&#x10a;" horiz-adv-x="530" 
d="M264 852q0 17 12 29t29 12t29 -12t12 -29t-12 -29t-29 -12t-29 12t-12 29zM499 51q-48 -32 -93.5 -45t-88.5 -13q-56 0 -105.5 16t-86.5 51.5t-58.5 92.5t-21.5 139v95q0 81 20 142.5t56 103t86.5 63t110.5 21.5q39 0 80.5 -9.5t85.5 -32.5l-9 -39q-41 20 -81 29.5
t-77 9.5q-47 0 -88.5 -16.5t-72 -51.5t-48.5 -89t-18 -128v-100q0 -67 18 -115.5t49 -79.5t72.5 -45.5t87.5 -14.5q42 0 87 13.5t85 42.5z" />
    <glyph glyph-name="cdotaccent" unicode="&#x10b;" horiz-adv-x="425" 
d="M205 642q0 17 12 29t29 12t29 -12t12 -29t-12 -29t-29 -12t-29 12t-12 29zM390 30q-35 -19 -67.5 -28t-67.5 -9q-48 0 -87.5 15.5t-68.5 45.5t-45 74t-16 100v29q0 59 16 105.5t44.5 78.5t68.5 49t89 17q59 0 124 -25l-5 -43q-32 13 -60 19.5t-56 6.5q-39 0 -71.5 -12.5
t-55.5 -38t-36 -65t-13 -92.5v-29q0 -47 13 -83t36 -60.5t54.5 -37t68.5 -12.5q33 0 63 9t67 29z" />
    <glyph glyph-name="Ccaron" unicode="&#x10c;" horiz-adv-x="530" 
d="M305 838l64 82h52l-97 -125h-38l-97 125h52zM499 51q-48 -32 -93.5 -45t-88.5 -13q-56 0 -105.5 16t-86.5 51.5t-58.5 92.5t-21.5 139v95q0 81 20 142.5t56 103t86.5 63t110.5 21.5q39 0 80.5 -9.5t85.5 -32.5l-9 -39q-41 20 -81 29.5t-77 9.5q-47 0 -88.5 -16.5
t-72 -51.5t-48.5 -89t-18 -128v-100q0 -67 18 -115.5t49 -79.5t72.5 -45.5t87.5 -14.5q42 0 87 13.5t85 42.5z" />
    <glyph glyph-name="ccaron" unicode="&#x10d;" horiz-adv-x="425" 
d="M241 628l64 82h52l-97 -125h-38l-97 125h52zM390 30q-35 -19 -67.5 -28t-67.5 -9q-48 0 -87.5 15.5t-68.5 45.5t-45 74t-16 100v29q0 59 16 105.5t44.5 78.5t68.5 49t89 17q59 0 124 -25l-5 -43q-32 13 -60 19.5t-56 6.5q-39 0 -71.5 -12.5t-55.5 -38t-36 -65t-13 -92.5
v-29q0 -47 13 -83t36 -60.5t54.5 -37t68.5 -12.5q33 0 63 9t67 29z" />
    <glyph glyph-name="Dcaron" unicode="&#x10e;" horiz-adv-x="590" 
d="M226 838l64 82h52l-97 -125h-38l-97 125h52zM64 0v702q90 15 161 15q86 0 146.5 -29.5t98.5 -80.5t55 -119t17 -145q0 -71 -17 -133.5t-52.5 -109t-90.5 -73.5t-130 -27h-188zM109 42h143q62 0 108 21.5t76.5 61.5t45.5 95.5t15 122.5q0 77 -16 138.5t-49.5 104.5t-85 66
t-121.5 23q-26 0 -55 -2.5t-61 -8.5v-622z" />
    <glyph glyph-name="dcaron" unicode="&#x10f;" horiz-adv-x="617" 
d="M372 733h45v-733h-40l-5 86q-33 -48 -71.5 -70.5t-79.5 -22.5q-38 0 -70.5 14.5t-56.5 42.5t-37.5 69.5t-13.5 95.5v71q0 54 14.5 95.5t39 69t57.5 42t69 14.5q39 0 77 -19t72 -61v306zM507 480h-45l61 230h70zM372 374q-32 46 -70.5 68.5t-76.5 22.5q-28 0 -53 -11
t-44 -33t-29.5 -56t-10.5 -80v-70q0 -90 38.5 -135t95.5 -45q40 0 79 25.5t71 77.5v236z" />
    <glyph glyph-name="dcroat" unicode="&#x111;" horiz-adv-x="476" 
d="M372 647v86h45v-86h59v-42h-59v-605h-40l-5 86q-33 -48 -71.5 -70.5t-79.5 -22.5q-38 0 -70.5 14.5t-56.5 42.5t-37.5 69.5t-13.5 95.5v71q0 54 14.5 95.5t39 69t57.5 42t69 14.5q39 0 77 -19t72 -61v178h-122v42h122zM372 374q-32 46 -70.5 68.5t-76.5 22.5
q-28 0 -53 -11t-44 -33t-29.5 -56t-10.5 -80v-70q0 -90 38.5 -135t95.5 -45q40 0 79 25.5t71 77.5v236z" />
    <glyph glyph-name="Emacron" unicode="&#x112;" horiz-adv-x="510" 
d="M404 837v-42h-274v42h274zM64 0v710h391v-42h-346v-291h303v-42h-303v-293h360v-42h-405z" />
    <glyph glyph-name="emacron" unicode="&#x113;" horiz-adv-x="454" 
d="M374 627v-42h-274v42h274zM85 219q4 -89 46.5 -136.5t124.5 -47.5q29 0 58.5 8.5t64.5 24.5l6 -43q-34 -17 -66.5 -24.5t-62.5 -7.5q-54 0 -94.5 17.5t-67.5 49.5t-40.5 76.5t-13.5 99.5q0 68 17 118.5t45 84.5t65.5 51t77.5 17q34 0 65.5 -13t56 -39t39 -65t14.5 -91
q0 -40 -10 -80h-325zM244 465q-30 0 -57.5 -13t-49 -38.5t-35.5 -63.5t-17 -89h287q3 20 3 38q0 41 -11 72t-29 52t-41.5 31.5t-49.5 10.5z" />
    <glyph glyph-name="Ebreve" unicode="&#x114;" horiz-adv-x="510" 
d="M171 920h42v-49q0 -19 15 -27.5t37 -8.5q15 0 28.5 3.5t25.5 8.5v73h42v-95q-26 -15 -48.5 -22.5t-48.5 -7.5q-37 0 -65 17.5t-28 55.5v52zM64 0v710h391v-42h-346v-291h303v-42h-303v-293h360v-42h-405z" />
    <glyph glyph-name="ebreve" unicode="&#x115;" horiz-adv-x="454" 
d="M144 710h42v-49q0 -19 15 -27.5t37 -8.5q15 0 28.5 3.5t25.5 8.5v73h42v-95q-26 -15 -48.5 -22.5t-48.5 -7.5q-37 0 -65 17.5t-28 55.5v52zM85 219q4 -89 46.5 -136.5t124.5 -47.5q29 0 58.5 8.5t64.5 24.5l6 -43q-34 -17 -66.5 -24.5t-62.5 -7.5q-54 0 -94.5 17.5
t-67.5 49.5t-40.5 76.5t-13.5 99.5q0 68 17 118.5t45 84.5t65.5 51t77.5 17q34 0 65.5 -13t56 -39t39 -65t14.5 -91q0 -40 -10 -80h-325zM244 465q-30 0 -57.5 -13t-49 -38.5t-35.5 -63.5t-17 -89h287q3 20 3 38q0 41 -11 72t-29 52t-41.5 31.5t-49.5 10.5z" />
    <glyph glyph-name="Edotaccent" unicode="&#x116;" horiz-adv-x="510" 
d="M225 852q0 17 12 29t29 12t29 -12t12 -29t-12 -29t-29 -12t-29 12t-12 29zM64 0v710h391v-42h-346v-291h303v-42h-303v-293h360v-42h-405z" />
    <glyph glyph-name="edotaccent" unicode="&#x117;" horiz-adv-x="454" 
d="M202 642q0 17 12 29t29 12t29 -12t12 -29t-12 -29t-29 -12t-29 12t-12 29zM85 219q4 -89 46.5 -136.5t124.5 -47.5q29 0 58.5 8.5t64.5 24.5l6 -43q-34 -17 -66.5 -24.5t-62.5 -7.5q-54 0 -94.5 17.5t-67.5 49.5t-40.5 76.5t-13.5 99.5q0 68 17 118.5t45 84.5t65.5 51
t77.5 17q34 0 65.5 -13t56 -39t39 -65t14.5 -91q0 -40 -10 -80h-325zM244 465q-30 0 -57.5 -13t-49 -38.5t-35.5 -63.5t-17 -89h287q3 20 3 38q0 41 -11 72t-29 52t-41.5 31.5t-49.5 10.5z" />
    <glyph glyph-name="Eogonek" unicode="&#x118;" horiz-adv-x="510" 
d="M64 0v710h391v-42h-346v-291h303v-42h-303v-293h360v-42q-31 -22 -51 -45t-20 -52q0 -40 40 -40q17 0 38 9l6 -39q-24 -10 -46 -10q-33 0 -56 19.5t-23 56.5q0 36 21.5 60t50.5 41h-365z" />
    <glyph glyph-name="eogonek" unicode="&#x119;" horiz-adv-x="454" 
d="M321 3q-17 -5 -31 -7.5t-34 -2.5q-54 0 -94.5 17.5t-67.5 49.5t-40.5 76.5t-13.5 99.5q0 68 17 118.5t45 84.5t65.5 51t77.5 17q34 0 65.5 -13t56 -39t39 -65t14.5 -91q0 -40 -10 -80h-325q4 -89 46.5 -136.5t124.5 -47.5q29 0 58.5 8.5t64.5 24.5l6 -42
q-17 -13 -34 -28.5t-31 -31.5t-22.5 -32t-8.5 -31q0 -40 40 -40q17 0 38 9l6 -39q-24 -10 -46 -10q-33 0 -56 19.5t-23 56.5q0 36 21.5 61t51.5 43zM244 465q-30 0 -57.5 -13t-49 -38.5t-35.5 -63.5t-17 -89h287q3 20 3 38q0 41 -11 72t-29 52t-41.5 31.5t-49.5 10.5z" />
    <glyph glyph-name="Ecaron" unicode="&#x11a;" horiz-adv-x="510" 
d="M266 838l64 82h52l-97 -125h-38l-97 125h52zM64 0v710h391v-42h-346v-291h303v-42h-303v-293h360v-42h-405z" />
    <glyph glyph-name="ecaron" unicode="&#x11b;" horiz-adv-x="454" 
d="M243 628l64 82h52l-97 -125h-38l-97 125h52zM85 219q4 -89 46.5 -136.5t124.5 -47.5q29 0 58.5 8.5t64.5 24.5l6 -43q-34 -17 -66.5 -24.5t-62.5 -7.5q-54 0 -94.5 17.5t-67.5 49.5t-40.5 76.5t-13.5 99.5q0 68 17 118.5t45 84.5t65.5 51t77.5 17q34 0 65.5 -13t56 -39
t39 -65t14.5 -91q0 -40 -10 -80h-325zM244 465q-30 0 -57.5 -13t-49 -38.5t-35.5 -63.5t-17 -89h287q3 20 3 38q0 41 -11 72t-29 52t-41.5 31.5t-49.5 10.5z" />
    <glyph glyph-name="Gcircumflex" unicode="&#x11c;" horiz-adv-x="588" 
d="M259 795h-52l97 125h38l97 -125h-52l-64 82zM527 35q-43 -20 -93 -31t-101 -11q-54 0 -105 15.5t-90.5 50.5t-63.5 92t-24 141v95q0 89 22.5 151.5t61.5 102t90 58t108 18.5q87 0 181 -43l-10 -40q-45 21 -88 31t-82 10q-52 0 -96 -17t-75.5 -52.5t-49 -89t-17.5 -126.5
v-100q0 -71 20 -119.5t53 -78.5t76 -43.5t89 -13.5q38 0 77 7t72 20v221q0 22 -9.5 30t-29.5 8h-112v42h112q43 0 63.5 -18.5t20.5 -61.5v-248z" />
    <glyph glyph-name="gcircumflex" unicode="&#x11d;" horiz-adv-x="440" 
d="M146 585h-52l97 125h38l97 -125h-52l-64 82zM42 337q0 36 11.5 67t33.5 54t53 36t70 13q38 0 69 -13t53 -35q5 7 7.5 14t4.5 15l10 42h45l-11 -47q-5 -20 -12 -32.5t-21 -22.5q11 -20 17.5 -42.5t6.5 -48.5q0 -36 -12 -67t-33.5 -53t-53 -34.5t-70.5 -12.5q-28 0 -52 6
q-25 -11 -35.5 -27t-10.5 -37v-10q0 -23 13.5 -34.5t44.5 -11.5h98q68 0 106 -33.5t38 -86.5v-15q0 -33 -15 -57t-41 -40t-60.5 -23.5t-74.5 -7.5t-74.5 8.5t-59.5 25.5t-39 42.5t-14 60.5v25h45v-25q0 -48 38 -71.5t104 -23.5q63 0 104.5 21.5t41.5 66.5v10
q0 36 -21.5 58.5t-77.5 22.5h-98q-49 0 -76 24t-27 65v7q0 27 13.5 48.5t38.5 33.5q-37 21 -57 59t-20 86zM87 337q0 -54 32 -89.5t91 -35.5t91.5 35.5t32.5 89.5t-32.5 91t-91.5 37t-91 -37t-32 -91z" />
    <glyph glyph-name="Gbreve" unicode="&#x11e;" horiz-adv-x="588" 
d="M226 920h42v-49q0 -19 15 -27.5t37 -8.5q15 0 28.5 3.5t25.5 8.5v73h42v-95q-26 -15 -48.5 -22.5t-48.5 -7.5q-37 0 -65 17.5t-28 55.5v52zM527 35q-43 -20 -93 -31t-101 -11q-54 0 -105 15.5t-90.5 50.5t-63.5 92t-24 141v95q0 89 22.5 151.5t61.5 102t90 58t108 18.5
q87 0 181 -43l-10 -40q-45 21 -88 31t-82 10q-52 0 -96 -17t-75.5 -52.5t-49 -89t-17.5 -126.5v-100q0 -71 20 -119.5t53 -78.5t76 -43.5t89 -13.5q38 0 77 7t72 20v221q0 22 -9.5 30t-29.5 8h-112v42h112q43 0 63.5 -18.5t20.5 -61.5v-248z" />
    <glyph glyph-name="gbreve" unicode="&#x11f;" horiz-adv-x="440" 
d="M115 710h42v-49q0 -19 15 -27.5t37 -8.5q15 0 28.5 3.5t25.5 8.5v73h42v-95q-26 -15 -48.5 -22.5t-48.5 -7.5q-37 0 -65 17.5t-28 55.5v52zM42 337q0 36 11.5 67t33.5 54t53 36t70 13q38 0 69 -13t53 -35q5 7 7.5 14t4.5 15l10 42h45l-11 -47q-5 -20 -12 -32.5t-21 -22.5
q11 -20 17.5 -42.5t6.5 -48.5q0 -36 -12 -67t-33.5 -53t-53 -34.5t-70.5 -12.5q-28 0 -52 6q-25 -11 -35.5 -27t-10.5 -37v-10q0 -23 13.5 -34.5t44.5 -11.5h98q68 0 106 -33.5t38 -86.5v-15q0 -33 -15 -57t-41 -40t-60.5 -23.5t-74.5 -7.5t-74.5 8.5t-59.5 25.5t-39 42.5
t-14 60.5v25h45v-25q0 -48 38 -71.5t104 -23.5q63 0 104.5 21.5t41.5 66.5v10q0 36 -21.5 58.5t-77.5 22.5h-98q-49 0 -76 24t-27 65v7q0 27 13.5 48.5t38.5 33.5q-37 21 -57 59t-20 86zM87 337q0 -54 32 -89.5t91 -35.5t91.5 35.5t32.5 89.5t-32.5 91t-91.5 37t-91 -37
t-32 -91z" />
    <glyph glyph-name="Gdotaccent" unicode="&#x120;" horiz-adv-x="588" 
d="M285 852q0 17 12 29t29 12t29 -12t12 -29t-12 -29t-29 -12t-29 12t-12 29zM527 35q-43 -20 -93 -31t-101 -11q-54 0 -105 15.5t-90.5 50.5t-63.5 92t-24 141v95q0 89 22.5 151.5t61.5 102t90 58t108 18.5q87 0 181 -43l-10 -40q-45 21 -88 31t-82 10q-52 0 -96 -17
t-75.5 -52.5t-49 -89t-17.5 -126.5v-100q0 -71 20 -119.5t53 -78.5t76 -43.5t89 -13.5q38 0 77 7t72 20v221q0 22 -9.5 30t-29.5 8h-112v42h112q43 0 63.5 -18.5t20.5 -61.5v-248z" />
    <glyph glyph-name="gdotaccent" unicode="&#x121;" horiz-adv-x="440" 
d="M169 642q0 17 12 29t29 12t29 -12t12 -29t-12 -29t-29 -12t-29 12t-12 29zM42 337q0 36 11.5 67t33.5 54t53 36t70 13q38 0 69 -13t53 -35q5 7 7.5 14t4.5 15l10 42h45l-11 -47q-5 -20 -12 -32.5t-21 -22.5q11 -20 17.5 -42.5t6.5 -48.5q0 -36 -12 -67t-33.5 -53
t-53 -34.5t-70.5 -12.5q-28 0 -52 6q-25 -11 -35.5 -27t-10.5 -37v-10q0 -23 13.5 -34.5t44.5 -11.5h98q68 0 106 -33.5t38 -86.5v-15q0 -33 -15 -57t-41 -40t-60.5 -23.5t-74.5 -7.5t-74.5 8.5t-59.5 25.5t-39 42.5t-14 60.5v25h45v-25q0 -48 38 -71.5t104 -23.5
q63 0 104.5 21.5t41.5 66.5v10q0 36 -21.5 58.5t-77.5 22.5h-98q-49 0 -76 24t-27 65v7q0 27 13.5 48.5t38.5 33.5q-37 21 -57 59t-20 86zM87 337q0 -54 32 -89.5t91 -35.5t91.5 35.5t32.5 89.5t-32.5 91t-91.5 37t-91 -37t-32 -91z" />
    <glyph glyph-name="uni0122" unicode="&#x122;" horiz-adv-x="588" 
d="M527 35q-43 -20 -93 -31t-101 -11q-54 0 -105 15.5t-90.5 50.5t-63.5 92t-24 141v95q0 89 22.5 151.5t61.5 102t90 58t108 18.5q87 0 181 -43l-10 -40q-45 21 -88 31t-82 10q-52 0 -96 -17t-75.5 -52.5t-49 -89t-17.5 -126.5v-100q0 -71 20 -119.5t53 -78.5t76 -43.5
t89 -13.5q38 0 77 7t72 20v221q0 22 -9.5 30t-29.5 8h-112v42h112q43 0 63.5 -18.5t20.5 -61.5v-248zM292 -200h-40l53 135h55z" />
    <glyph glyph-name="uni0123" unicode="&#x123;" horiz-adv-x="440" 
d="M260 710h40l-55 -140h-55zM42 337q0 36 11.5 67t33.5 54t53 36t70 13q38 0 69 -13t53 -35q5 7 7.5 14t4.5 15l10 42h45l-11 -47q-5 -20 -12 -32.5t-21 -22.5q11 -20 17.5 -42.5t6.5 -48.5q0 -36 -12 -67t-33.5 -53t-53 -34.5t-70.5 -12.5q-28 0 -52 6q-25 -11 -35.5 -27
t-10.5 -37v-10q0 -23 13.5 -34.5t44.5 -11.5h98q68 0 106 -33.5t38 -86.5v-15q0 -33 -15 -57t-41 -40t-60.5 -23.5t-74.5 -7.5t-74.5 8.5t-59.5 25.5t-39 42.5t-14 60.5v25h45v-25q0 -48 38 -71.5t104 -23.5q63 0 104.5 21.5t41.5 66.5v10q0 36 -21.5 58.5t-77.5 22.5h-98
q-49 0 -76 24t-27 65v7q0 27 13.5 48.5t38.5 33.5q-37 21 -57 59t-20 86zM87 337q0 -54 32 -89.5t91 -35.5t91.5 35.5t32.5 89.5t-32.5 91t-91.5 37t-91 -37t-32 -91z" />
    <glyph glyph-name="Hcircumflex" unicode="&#x124;" horiz-adv-x="593" 
d="M232 795h-52l97 125h38l97 -125h-52l-64 82zM109 360h375v350h45v-710h-45v318h-375v-318h-45v710h45v-350z" />
    <glyph glyph-name="hcircumflex" unicode="&#x125;" horiz-adv-x="469" 
d="M24 795h-52l97 125h38l97 -125h-52l-64 82zM104 0h-45v733h45v-332q15 19 35 38t43 34t49 24.5t54 9.5q26 0 48.5 -7t39.5 -23t27 -40t10 -59v-378h-45v378q0 45 -20 66t-60 21q-25 0 -50.5 -10.5t-49.5 -27t-44.5 -37t-36.5 -40.5v-350z" />
    <glyph glyph-name="Hbar" unicode="&#x126;" horiz-adv-x="593" 
d="M64 588v122h45v-122h375v122h45v-122h64v-42h-64v-546h-45v318h-375v-318h-45v546h-64v42h64zM484 360v186h-375v-186h375z" />
    <glyph glyph-name="hbar" unicode="&#x127;" horiz-adv-x="469" 
d="M59 647v86h45v-86h122v-42h-122v-204q15 19 35 38t43 34t49 24.5t54 9.5q26 0 48.5 -7t39.5 -23t27 -40t10 -59v-378h-45v378q0 45 -20 66t-60 21q-25 0 -50.5 -10.5t-49.5 -27t-44.5 -37t-36.5 -40.5v-350h-45v605h-59v42h59z" />
    <glyph glyph-name="Itilde" unicode="&#x128;" horiz-adv-x="185" 
d="M149 849q11 0 21 11t13 34l43 -11q-7 -35 -28 -55.5t-50 -20.5q-18 0 -33 7.5t-28.5 17t-25.5 17t-24 7.5t-22 -11t-13 -34l-43 11q7 35 28 55.5t50 20.5q17 0 31.5 -7.5t28 -17t26.5 -17t26 -7.5zM115 0h-45v710h45v-710z" />
    <glyph glyph-name="itilde" unicode="&#x129;" horiz-adv-x="198" 
d="M156 639q11 0 21 11t13 34l43 -11q-7 -35 -28 -55.5t-50 -20.5q-18 0 -33 7.5t-28.5 17t-25.5 17t-24 7.5t-22 -11t-13 -34l-43 11q7 35 28 55.5t50 20.5q17 0 31.5 -7.5t28 -17t26.5 -17t26 -7.5zM89 430q0 15 -6 21.5t-21 6.5h-32v42h34q38 0 54 -15.5t16 -53.5v-431
h-45v430z" />
    <glyph glyph-name="Imacron" unicode="&#x12a;" horiz-adv-x="185" 
d="M230 837v-42h-274v42h274zM115 0h-45v710h45v-710z" />
    <glyph glyph-name="imacron" unicode="&#x12b;" horiz-adv-x="198" 
d="M236 627v-42h-274v42h274zM89 430q0 15 -6 21.5t-21 6.5h-32v42h34q38 0 54 -15.5t16 -53.5v-431h-45v430z" />
    <glyph glyph-name="Iogonek" unicode="&#x12e;" horiz-adv-x="185" 
d="M70 710h45v-710q-31 -22 -51 -45t-20 -52q0 -40 40 -40q17 0 38 9l6 -39q-24 -10 -46 -10q-33 0 -56 19.5t-23 56.5q0 36 19 60t48 41v710z" />
    <glyph glyph-name="iogonek" unicode="&#x12f;" horiz-adv-x="198" 
d="M46 642q0 19 13 32t32 13t32 -13t13 -32t-13 -32t-32 -13t-32 13t-13 32zM89 430q0 15 -6 21.5t-21 6.5h-32v42h34q38 0 54 -15.5t16 -53.5v-431q-31 -22 -51 -45t-20 -52q0 -40 40 -40q17 0 38 9l6 -39q-24 -10 -46 -10q-33 0 -56 19.5t-23 56.5q0 36 19 60t48 41v430z
" />
    <glyph glyph-name="Idotaccent" unicode="&#x130;" horiz-adv-x="185" 
d="M51 852q0 17 12 29t29 12t29 -12t12 -29t-12 -29t-29 -12t-29 12t-12 29zM115 0h-45v710h45v-710z" />
    <glyph glyph-name="dotlessi" unicode="&#x131;" horiz-adv-x="198" 
d="M89 430q0 15 -6 21.5t-21 6.5h-32v42h34q38 0 54 -15.5t16 -53.5v-431h-45v430z" />
    <glyph glyph-name="Jcircumflex" unicode="&#x134;" horiz-adv-x="281" 
d="M125 795h-52l97 125h38l97 -125h-52l-64 82zM217 145q0 -74 -36 -113t-90 -39q-37 0 -75 21l4 44q37 -23 70 -23q36 0 59 27t23 86v562h45v-565z" />
    <glyph glyph-name="jcircumflex" unicode="&#x135;" horiz-adv-x="202" 
d="M37 585h-52l97 125h38l97 -125h-52l-64 82zM98 430q0 15 -6 21.5t-21 6.5h-36v42h38q38 0 54 -15.5t16 -53.5v-500q0 -67 -31.5 -102.5t-80.5 -35.5q-33 0 -67 15l6 43q16 -8 29.5 -12t28.5 -4q29 0 49.5 21.5t20.5 77.5v496z" />
    <glyph glyph-name="uni0136" unicode="&#x136;" horiz-adv-x="553" 
d="M302 360q38 -8 64 -31.5t45 -68.5l109 -260h-45l-104 248q-9 22 -19 36t-23.5 22.5t-30.5 12t-41 3.5h-148v-322h-45v710h45v-346h146l208 346h49zM228 -200h-40l53 135h55z" />
    <glyph glyph-name="uni0137" unicode="&#x137;" horiz-adv-x="416" 
d="M392 0h-44l-52 171q-11 34 -31 48.5t-57 14.5h-104v-234h-45v733h45v-457h106l116 224h48l-119 -230q32 -9 51.5 -31.5t30.5 -57.5zM172 -200h-40l53 135h55z" />
    <glyph glyph-name="Lacute" unicode="&#x139;" horiz-adv-x="472" 
d="M118 790h-46l79 130h60zM109 42h333v-42h-378v710h45v-668z" />
    <glyph glyph-name="lacute" unicode="&#x13a;" horiz-adv-x="203" 
d="M107 790h-46l79 130h60zM104 90q0 -29 11 -42t30 -13q9 0 17.5 2.5t20.5 7.5l5 -41q-24 -11 -46 -11q-39 0 -61 24t-22 72v644h45v-643z" />
    <glyph glyph-name="uni013B" unicode="&#x13b;" horiz-adv-x="472" 
d="M109 42h333v-42h-378v710h45v-668zM201 -200h-40l53 135h55z" />
    <glyph glyph-name="uni013C" unicode="&#x13c;" horiz-adv-x="203" 
d="M104 90q0 -29 11 -42t30 -13q9 0 17.5 2.5t20.5 7.5l5 -41q-24 -11 -46 -11q-39 0 -61 24t-22 72v644h45v-643zM70 -200h-40l53 135h55z" />
    <glyph glyph-name="Lcaron" unicode="&#x13d;" horiz-adv-x="472" 
d="M109 42h333v-42h-378v710h45v-668zM241 480h-45l61 230h70z" />
    <glyph glyph-name="lcaron" unicode="&#x13e;" horiz-adv-x="203" 
d="M104 90q0 -29 11 -42t30 -13q9 0 17.5 2.5t20.5 7.5l5 -41q-24 -11 -46 -11q-39 0 -61 24t-22 72v644h45v-643zM204 480h-45l61 230h70z" />
    <glyph glyph-name="Ldot" unicode="&#x13f;" horiz-adv-x="472" 
d="M109 42h333v-42h-378v710h45v-668zM223 300q0 18 13 31t31 13t31 -13t13 -31t-13 -31t-31 -13t-31 13t-13 31z" />
    <glyph glyph-name="ldot" unicode="&#x140;" horiz-adv-x="270" 
d="M104 90q0 -29 11 -42t30 -13q9 0 17.5 2.5t20.5 7.5l5 -41q-24 -11 -46 -11q-39 0 -61 24t-22 72v644h45v-643zM150 300q0 18 13 31t31 13t31 -13t13 -31t-13 -31t-31 -13t-31 13t-13 31z" />
    <glyph glyph-name="Lslash" unicode="&#x141;" horiz-adv-x="472" 
d="M64 289v421h45v-400l126 59v-47l-126 -59v-221h333v-42h-378v242l-64 -30v47z" />
    <glyph glyph-name="lslash" unicode="&#x142;" horiz-adv-x="203" 
d="M104 307l99 47v-47l-99 -47v-170q0 -29 11 -42t30 -13q9 0 17.5 2.5t20.5 7.5l5 -41q-24 -11 -46 -11q-39 0 -61 24t-22 72v150l-59 -27v47l59 27v447h45v-426z" />
    <glyph glyph-name="Nacute" unicode="&#x143;" horiz-adv-x="580" 
d="M322 795h-46l79 125h60zM109 634v-634h-45v710h54l353 -643v643h45v-710h-59z" />
    <glyph glyph-name="nacute" unicode="&#x144;" horiz-adv-x="469" 
d="M265 585h-46l79 125h60zM104 0h-45v500h40l5 -99q15 19 35 38t43 34t49 24.5t54 9.5q26 0 48.5 -7t39.5 -23t27 -40t10 -59v-378h-45v378q0 45 -20 66t-60 21q-25 0 -50.5 -10.5t-49.5 -27t-44.5 -37t-36.5 -40.5v-350z" />
    <glyph glyph-name="uni0145" unicode="&#x145;" horiz-adv-x="580" 
d="M109 634v-634h-45v710h54l353 -643v643h45v-710h-59zM243 -200h-40l53 135h55z" />
    <glyph glyph-name="uni0146" unicode="&#x146;" horiz-adv-x="469" 
d="M104 0h-45v500h40l5 -99q15 19 35 38t43 34t49 24.5t54 9.5q26 0 48.5 -7t39.5 -23t27 -40t10 -59v-378h-45v378q0 45 -20 66t-60 21q-25 0 -50.5 -10.5t-49.5 -27t-44.5 -37t-36.5 -40.5v-350zM205 -200h-40l53 135h55z" />
    <glyph glyph-name="Ncaron" unicode="&#x147;" horiz-adv-x="580" 
d="M303 838l64 82h52l-97 -125h-38l-97 125h52zM109 634v-634h-45v710h54l353 -643v643h45v-710h-59z" />
    <glyph glyph-name="ncaron" unicode="&#x148;" horiz-adv-x="469" 
d="M243 628l64 82h52l-97 -125h-38l-97 125h52zM104 0h-45v500h40l5 -99q15 19 35 38t43 34t49 24.5t54 9.5q26 0 48.5 -7t39.5 -23t27 -40t10 -59v-378h-45v378q0 45 -20 66t-60 21q-25 0 -50.5 -10.5t-49.5 -27t-44.5 -37t-36.5 -40.5v-350z" />
    <glyph glyph-name="napostrophe" unicode="&#x149;" horiz-adv-x="548" 
d="M71 480h-45l61 230h70zM183 0h-45v500h40l5 -99q15 19 35 38t43 34t49 24.5t54 9.5q26 0 48.5 -7t39.5 -23t27 -40t10 -59v-378h-45v378q0 45 -20 66t-60 21q-25 0 -50.5 -10.5t-49.5 -27t-44.5 -37t-36.5 -40.5v-350z" />
    <glyph glyph-name="Omacron" unicode="&#x14c;" horiz-adv-x="636" 
d="M455 837v-42h-274v42h274zM316 -7q-65 0 -117 23.5t-88 67t-55.5 105t-19.5 137.5v58q0 76 19.5 137.5t55.5 105t88 67t117 23.5t117 -23.5t88 -67t55.5 -105t19.5 -137.5v-58q0 -76 -19.5 -137.5t-55.5 -105t-88 -67t-117 -23.5zM316 675q-57 0 -100.5 -22.5
t-73.5 -61.5t-45.5 -91.5t-15.5 -112.5v-64q0 -60 15.5 -112.5t45.5 -91.5t73.5 -61.5t100.5 -22.5t100.5 22.5t73.5 61.5t45.5 91.5t15.5 112.5v64q0 60 -15.5 112.5t-45.5 91.5t-73.5 61.5t-100.5 22.5z" />
    <glyph glyph-name="omacron" unicode="&#x14d;" horiz-adv-x="500" 
d="M387 627v-42h-274v42h274zM250 -7q-60 0 -101 19.5t-65.5 52.5t-35.5 76t-11 90v38q0 47 11 90t35.5 76t65.5 52.5t101 19.5t101 -19.5t65.5 -52.5t35.5 -76t11 -90v-38q0 -47 -11 -90t-35.5 -76t-65.5 -52.5t-101 -19.5zM250 35q45 0 77 15t52 42t29.5 63.5t9.5 79.5v30
q0 43 -9.5 79.5t-29.5 63.5t-52 42t-77 15t-77 -15t-52 -42t-29.5 -63.5t-9.5 -79.5v-30q0 -43 9.5 -79.5t29.5 -63.5t52 -42t77 -15z" />
    <glyph glyph-name="Obreve" unicode="&#x14e;" horiz-adv-x="636" 
d="M223 920h42v-49q0 -19 15 -27.5t37 -8.5q15 0 28.5 3.5t25.5 8.5v73h42v-95q-26 -15 -48.5 -22.5t-48.5 -7.5q-37 0 -65 17.5t-28 55.5v52zM316 -7q-65 0 -117 23.5t-88 67t-55.5 105t-19.5 137.5v58q0 76 19.5 137.5t55.5 105t88 67t117 23.5t117 -23.5t88 -67
t55.5 -105t19.5 -137.5v-58q0 -76 -19.5 -137.5t-55.5 -105t-88 -67t-117 -23.5zM316 675q-57 0 -100.5 -22.5t-73.5 -61.5t-45.5 -91.5t-15.5 -112.5v-64q0 -60 15.5 -112.5t45.5 -91.5t73.5 -61.5t100.5 -22.5t100.5 22.5t73.5 61.5t45.5 91.5t15.5 112.5v64
q0 60 -15.5 112.5t-45.5 91.5t-73.5 61.5t-100.5 22.5z" />
    <glyph glyph-name="obreve" unicode="&#x14f;" horiz-adv-x="500" 
d="M155 710h42v-49q0 -19 15 -27.5t37 -8.5q15 0 28.5 3.5t25.5 8.5v73h42v-95q-26 -15 -48.5 -22.5t-48.5 -7.5q-37 0 -65 17.5t-28 55.5v52zM250 -7q-60 0 -101 19.5t-65.5 52.5t-35.5 76t-11 90v38q0 47 11 90t35.5 76t65.5 52.5t101 19.5t101 -19.5t65.5 -52.5t35.5 -76
t11 -90v-38q0 -47 -11 -90t-35.5 -76t-65.5 -52.5t-101 -19.5zM250 35q45 0 77 15t52 42t29.5 63.5t9.5 79.5v30q0 43 -9.5 79.5t-29.5 63.5t-52 42t-77 15t-77 -15t-52 -42t-29.5 -63.5t-9.5 -79.5v-30q0 -43 9.5 -79.5t29.5 -63.5t52 -42t77 -15z" />
    <glyph glyph-name="Ohungarumlaut" unicode="&#x150;" horiz-adv-x="636" 
d="M282 795h-46l79 125h60zM386 795h-46l79 125h60zM316 -7q-65 0 -117 23.5t-88 67t-55.5 105t-19.5 137.5v58q0 76 19.5 137.5t55.5 105t88 67t117 23.5t117 -23.5t88 -67t55.5 -105t19.5 -137.5v-58q0 -76 -19.5 -137.5t-55.5 -105t-88 -67t-117 -23.5zM316 675
q-57 0 -100.5 -22.5t-73.5 -61.5t-45.5 -91.5t-15.5 -112.5v-64q0 -60 15.5 -112.5t45.5 -91.5t73.5 -61.5t100.5 -22.5t100.5 22.5t73.5 61.5t45.5 91.5t15.5 112.5v64q0 60 -15.5 112.5t-45.5 91.5t-73.5 61.5t-100.5 22.5z" />
    <glyph glyph-name="ohungarumlaut" unicode="&#x151;" horiz-adv-x="500" 
d="M219 585h-46l79 125h60zM323 585h-46l79 125h60zM250 -7q-60 0 -101 19.5t-65.5 52.5t-35.5 76t-11 90v38q0 47 11 90t35.5 76t65.5 52.5t101 19.5t101 -19.5t65.5 -52.5t35.5 -76t11 -90v-38q0 -47 -11 -90t-35.5 -76t-65.5 -52.5t-101 -19.5zM250 35q45 0 77 15t52 42
t29.5 63.5t9.5 79.5v30q0 43 -9.5 79.5t-29.5 63.5t-52 42t-77 15t-77 -15t-52 -42t-29.5 -63.5t-9.5 -79.5v-30q0 -43 9.5 -79.5t29.5 -63.5t52 -42t77 -15z" />
    <glyph glyph-name="OE" unicode="&#x152;" horiz-adv-x="904" 
d="M458 0q-32 0 -72.5 -3.5t-69.5 -3.5q-65 0 -116.5 23.5t-87.5 67t-55 105t-19 137.5v58q0 76 19 137.5t55 105t87.5 67t116.5 23.5q29 0 69.5 -3.5t72.5 -3.5h391v-42h-346v-291h303v-42h-303v-293h360v-42h-405zM458 668q-32 0 -72.5 3.5t-69.5 3.5q-57 0 -100.5 -22.5
t-73 -61.5t-44.5 -91.5t-15 -112.5v-64q0 -60 15 -112.5t44.5 -91.5t73 -61.5t100.5 -22.5q29 0 69.5 3.5t72.5 3.5v626z" />
    <glyph glyph-name="oe" unicode="&#x153;" horiz-adv-x="735" 
d="M366 219q4 -89 46.5 -136.5t124.5 -47.5q29 0 58.5 8.5t64.5 24.5l6 -43q-34 -17 -66.5 -24.5t-62.5 -7.5q-90 0 -144 48q-25 -23 -60 -35.5t-83 -12.5q-60 0 -100.5 19.5t-65 52.5t-35 76t-10.5 90v38q0 47 10.5 90t35 76t65 52.5t100.5 19.5q50 0 86 -14t61 -38
q27 26 60 39t69 13q34 0 65.5 -13t56 -39t39 -65t14.5 -91q0 -40 -10 -80h-325zM250 35q37 0 65 10.5t48 29.5q-42 62 -42 161q0 59 12.5 104.5t34.5 78.5q-20 22 -49 34t-69 12q-45 0 -76.5 -15t-51.5 -42t-29 -63.5t-9 -79.5v-30q0 -43 9 -79.5t29 -63.5t51.5 -42
t76.5 -15zM525 465q-30 0 -57.5 -13t-49 -38.5t-35.5 -63.5t-17 -89h287q3 20 3 38q0 41 -11 72t-29 52t-41.5 31.5t-49.5 10.5z" />
    <glyph glyph-name="Racute" unicode="&#x154;" horiz-adv-x="544" 
d="M248 795h-46l79 125h60zM64 695q48 11 93.5 16.5t81.5 5.5q65 0 112 -17.5t77.5 -46.5t45.5 -66t15 -76q0 -29 -8 -57.5t-24.5 -53t-42 -43.5t-59.5 -30q27 -22 47 -67l109 -260h-47l-104 247q-9 21 -18.5 34.5t-21 21t-26.5 10t-36 2.5h-149v-315h-45v695zM109 357h154
q49 0 83.5 13.5t56 35.5t31.5 49.5t10 55.5q0 30 -12 59.5t-37 53t-64 37.5t-93 14q-26 0 -60.5 -3t-68.5 -11v-304z" />
    <glyph glyph-name="racute" unicode="&#x155;" horiz-adv-x="306" 
d="M160 585h-46l79 125h60zM282 458q-21 7 -40 7q-25 0 -46 -8t-38 -21.5t-30 -31.5t-24 -37v-367h-45v500h40l5 -80q19 35 54 61t81 26q24 0 48 -7z" />
    <glyph glyph-name="uni0156" unicode="&#x156;" horiz-adv-x="544" 
d="M64 695q48 11 93.5 16.5t81.5 5.5q65 0 112 -17.5t77.5 -46.5t45.5 -66t15 -76q0 -29 -8 -57.5t-24.5 -53t-42 -43.5t-59.5 -30q27 -22 47 -67l109 -260h-47l-104 247q-9 21 -18.5 34.5t-21 21t-26.5 10t-36 2.5h-149v-315h-45v695zM109 357h154q49 0 83.5 13.5t56 35.5
t31.5 49.5t10 55.5q0 30 -12 59.5t-37 53t-64 37.5t-93 14q-26 0 -60.5 -3t-68.5 -11v-304zM223 -200h-40l53 135h55z" />
    <glyph glyph-name="uni0157" unicode="&#x157;" horiz-adv-x="306" 
d="M282 458q-21 7 -40 7q-25 0 -46 -8t-38 -21.5t-30 -31.5t-24 -37v-367h-45v500h40l5 -80q19 35 54 61t81 26q24 0 48 -7zM39 -200h-40l53 135h55z" />
    <glyph glyph-name="Rcaron" unicode="&#x158;" horiz-adv-x="544" 
d="M237 838l64 82h52l-97 -125h-38l-97 125h52zM64 695q48 11 93.5 16.5t81.5 5.5q65 0 112 -17.5t77.5 -46.5t45.5 -66t15 -76q0 -29 -8 -57.5t-24.5 -53t-42 -43.5t-59.5 -30q27 -22 47 -67l109 -260h-47l-104 247q-9 21 -18.5 34.5t-21 21t-26.5 10t-36 2.5h-149v-315
h-45v695zM109 357h154q49 0 83.5 13.5t56 35.5t31.5 49.5t10 55.5q0 30 -12 59.5t-37 53t-64 37.5t-93 14q-26 0 -60.5 -3t-68.5 -11v-304z" />
    <glyph glyph-name="rcaron" unicode="&#x159;" horiz-adv-x="306" 
d="M145 628l64 82h52l-97 -125h-38l-97 125h52zM282 458q-21 7 -40 7q-25 0 -46 -8t-38 -21.5t-30 -31.5t-24 -37v-367h-45v500h40l5 -80q19 35 54 61t81 26q24 0 48 -7z" />
    <glyph glyph-name="Sacute" unicode="&#x15a;" horiz-adv-x="524" 
d="M282 795h-46l79 125h60zM478 167q0 -48 -17.5 -81.5t-46.5 -54t-67 -29.5t-79 -9q-57 0 -117 14t-111 37l8 45q16 -9 40.5 -18.5t54 -17.5t62 -13t63.5 -5q32 0 61.5 6.5t52.5 21.5t37 40.5t14 63.5q0 48 -28 79.5t-69.5 55t-90.5 44t-90.5 45.5t-69.5 60t-28 88
q0 51 19 85t50 54.5t71.5 29.5t83.5 9q52 0 101.5 -10t89.5 -26l-8 -40q-32 13 -81.5 23.5t-100.5 10.5q-35 0 -67.5 -6.5t-57.5 -22t-40 -41t-15 -64.5q0 -43 28 -72t69.5 -51.5t90.5 -43.5t90.5 -48t69.5 -64.5t28 -94.5z" />
    <glyph glyph-name="sacute" unicode="&#x15b;" horiz-adv-x="398" 
d="M222 585h-46l79 125h60zM346 443q-26 8 -63.5 15t-80.5 7q-24 0 -46.5 -4t-39.5 -14t-27.5 -25t-10.5 -38q0 -35 21.5 -55.5t53 -34t69 -23.5t69 -26t53 -41t21.5 -67t-14.5 -69.5t-38.5 -44t-56.5 -23.5t-68.5 -7q-42 0 -84.5 6.5t-79.5 16.5l6 47q32 -10 74 -19t85 -9
q26 0 50 5t42 16.5t29 31t11 49.5q0 31 -21.5 49t-53 31t-69 24t-69 28t-53 44t-21.5 71q0 35 13.5 58.5t36 37.5t52 20.5t61.5 6.5q42 0 83.5 -7.5t72.5 -17.5z" />
    <glyph glyph-name="Scircumflex" unicode="&#x15c;" horiz-adv-x="524" 
d="M210 795h-52l97 125h38l97 -125h-52l-64 82zM478 167q0 -48 -17.5 -81.5t-46.5 -54t-67 -29.5t-79 -9q-57 0 -117 14t-111 37l8 45q16 -9 40.5 -18.5t54 -17.5t62 -13t63.5 -5q32 0 61.5 6.5t52.5 21.5t37 40.5t14 63.5q0 48 -28 79.5t-69.5 55t-90.5 44t-90.5 45.5
t-69.5 60t-28 88q0 51 19 85t50 54.5t71.5 29.5t83.5 9q52 0 101.5 -10t89.5 -26l-8 -40q-32 13 -81.5 23.5t-100.5 10.5q-35 0 -67.5 -6.5t-57.5 -22t-40 -41t-15 -64.5q0 -43 28 -72t69.5 -51.5t90.5 -43.5t90.5 -48t69.5 -64.5t28 -94.5z" />
    <glyph glyph-name="scircumflex" unicode="&#x15d;" horiz-adv-x="398" 
d="M135 585h-52l97 125h38l97 -125h-52l-64 82zM346 443q-26 8 -63.5 15t-80.5 7q-24 0 -46.5 -4t-39.5 -14t-27.5 -25t-10.5 -38q0 -35 21.5 -55.5t53 -34t69 -23.5t69 -26t53 -41t21.5 -67t-14.5 -69.5t-38.5 -44t-56.5 -23.5t-68.5 -7q-42 0 -84.5 6.5t-79.5 16.5l6 47
q32 -10 74 -19t85 -9q26 0 50 5t42 16.5t29 31t11 49.5q0 31 -21.5 49t-53 31t-69 24t-69 28t-53 44t-21.5 71q0 35 13.5 58.5t36 37.5t52 20.5t61.5 6.5q42 0 83.5 -7.5t72.5 -17.5z" />
    <glyph glyph-name="Scedilla" unicode="&#x15e;" horiz-adv-x="524" 
d="M235 -5q-51 4 -101 16.5t-94 32.5l8 45q16 -9 40.5 -18.5t54 -17.5t62 -13t63.5 -5q32 0 61.5 6.5t52.5 21.5t37 40.5t14 63.5q0 48 -28 79.5t-69.5 55t-90.5 44t-90.5 45.5t-69.5 60t-28 88q0 51 19 85t50 54.5t71.5 29.5t83.5 9q52 0 101.5 -10t89.5 -26l-8 -40
q-32 13 -81.5 23.5t-100.5 10.5q-35 0 -67.5 -6.5t-57.5 -22t-40 -41t-15 -64.5q0 -43 28 -72t69.5 -51.5t90.5 -43.5t90.5 -48t69.5 -64.5t28 -94.5q0 -48 -16.5 -80.5t-45 -53t-65 -30t-77.5 -10.5l-6 -33q29 -1 43 -17t14 -45q0 -31 -18 -53t-60 -22q-16 0 -33.5 3.5
t-31.5 8.5l9 42q32 -12 56 -12q21 0 29.5 9t8.5 23q0 23 -25 23h-40z" />
    <glyph glyph-name="scedilla" unicode="&#x15f;" horiz-adv-x="398" 
d="M158 -6q-35 2 -69.5 8t-65.5 14l6 47q32 -10 74 -19t85 -9q26 0 50 5t42 16.5t29 31t11 49.5q0 31 -21.5 49t-53 31t-69 24t-69 28t-53 44t-21.5 71q0 35 13.5 58.5t36 37.5t52 20.5t61.5 6.5q42 0 83.5 -7.5t72.5 -17.5l-6 -39q-26 8 -63.5 15t-80.5 7q-24 0 -46.5 -4
t-39.5 -14t-27.5 -25t-10.5 -38q0 -35 21.5 -55.5t53 -34t69 -23.5t69 -26t53 -41t21.5 -67q0 -40 -13.5 -67t-36 -44t-53 -24.5t-64.5 -8.5l-6 -33q29 -1 43 -17t14 -45q0 -31 -18 -53t-60 -22q-16 0 -33.5 3.5t-31.5 8.5l9 42q32 -12 56 -12q21 0 29.5 9t8.5 23
q0 23 -25 23h-40z" />
    <glyph glyph-name="Scaron" unicode="&#x160;" horiz-adv-x="524" 
d="M262 838l64 82h52l-97 -125h-38l-97 125h52zM478 167q0 -48 -17.5 -81.5t-46.5 -54t-67 -29.5t-79 -9q-57 0 -117 14t-111 37l8 45q16 -9 40.5 -18.5t54 -17.5t62 -13t63.5 -5q32 0 61.5 6.5t52.5 21.5t37 40.5t14 63.5q0 48 -28 79.5t-69.5 55t-90.5 44t-90.5 45.5
t-69.5 60t-28 88q0 51 19 85t50 54.5t71.5 29.5t83.5 9q52 0 101.5 -10t89.5 -26l-8 -40q-32 13 -81.5 23.5t-100.5 10.5q-35 0 -67.5 -6.5t-57.5 -22t-40 -41t-15 -64.5q0 -43 28 -72t69.5 -51.5t90.5 -43.5t90.5 -48t69.5 -64.5t28 -94.5z" />
    <glyph glyph-name="scaron" unicode="&#x161;" horiz-adv-x="398" 
d="M199 628l64 82h52l-97 -125h-38l-97 125h52zM346 443q-26 8 -63.5 15t-80.5 7q-24 0 -46.5 -4t-39.5 -14t-27.5 -25t-10.5 -38q0 -35 21.5 -55.5t53 -34t69 -23.5t69 -26t53 -41t21.5 -67t-14.5 -69.5t-38.5 -44t-56.5 -23.5t-68.5 -7q-42 0 -84.5 6.5t-79.5 16.5l6 47
q32 -10 74 -19t85 -9q26 0 50 5t42 16.5t29 31t11 49.5q0 31 -21.5 49t-53 31t-69 24t-69 28t-53 44t-21.5 71q0 35 13.5 58.5t36 37.5t52 20.5t61.5 6.5q42 0 83.5 -7.5t72.5 -17.5z" />
    <glyph glyph-name="uni0162" unicode="&#x162;" horiz-adv-x="583" 
d="M8 668v42h525v-42h-240v-668h-45v668h-240zM227 -200h-40l53 135h55z" />
    <glyph glyph-name="uni0163" unicode="&#x163;" horiz-adv-x="276" 
d="M81 458h-67v42h67v141l45 9v-150h115v-42h-115v-358q0 -34 15 -49.5t38 -15.5q27 0 57 18l3 -41q-30 -19 -64 -19q-37 0 -65.5 26t-28.5 80v359zM76 -200h-40l53 135h55z" />
    <glyph glyph-name="Tcaron" unicode="&#x164;" horiz-adv-x="583" 
d="M291 838l64 82h52l-97 -125h-38l-97 125h52zM29 668v42h525v-42h-240v-668h-45v668h-240z" />
    <glyph glyph-name="tcaron" unicode="&#x165;" horiz-adv-x="276" 
d="M261 560h-45l35 150h70zM81 458h-67v42h67v141l45 9v-150h115v-42h-115v-358q0 -34 15 -49.5t38 -15.5q27 0 57 18l3 -41q-30 -19 -64 -19q-37 0 -65.5 26t-28.5 80v359z" />
    <glyph glyph-name="Tbar" unicode="&#x166;" horiz-adv-x="583" 
d="M269 416v252h-240v42h525v-42h-240v-252h164v-42h-164v-374h-45v374h-165v42h165z" />
    <glyph glyph-name="tbar" unicode="&#x167;" horiz-adv-x="276" 
d="M81 300v158h-67v42h67v141l45 9v-150h115v-42h-115v-158h115v-42h-115v-158q0 -34 15 -49.5t38 -15.5q27 0 57 18l3 -41q-30 -19 -64 -19q-37 0 -65.5 26t-28.5 80v159h-67v42h67z" />
    <glyph glyph-name="Utilde" unicode="&#x168;" horiz-adv-x="633" 
d="M373 849q11 0 21 11t13 34l43 -11q-7 -35 -28 -55.5t-50 -20.5q-18 0 -33 7.5t-28.5 17t-25.5 17t-24 7.5t-22 -11t-13 -34l-43 11q7 35 28 55.5t50 20.5q17 0 31.5 -7.5t28 -17t26.5 -17t26 -7.5zM572 241q0 -65 -22.5 -112t-58.5 -77t-82 -44.5t-93 -14.5t-93 14.5
t-82 44.5t-58 77t-22 112v469h45v-469q0 -55 18 -94t48 -64t67.5 -36.5t76.5 -11.5t77 11.5t67.5 36.5t48 64t18.5 94v469h45v-469z" />
    <glyph glyph-name="utilde" unicode="&#x169;" horiz-adv-x="469" 
d="M291 639q11 0 21 11t13 34l43 -11q-7 -35 -28 -55.5t-50 -20.5q-18 0 -33 7.5t-28.5 17t-25.5 17t-24 7.5t-22 -11t-13 -34l-43 11q7 35 28 55.5t50 20.5q17 0 31.5 -7.5t28 -17t26.5 -17t26 -7.5zM365 500h45v-500h-40l-5 90q-15 -19 -35 -36.5t-43 -31t-49 -21.5
t-54 -8q-25 0 -48 7.5t-40 24t-27 41.5t-10 59v375h45v-375q0 -90 80 -90q25 0 50.5 9t49.5 24t44.5 34t36.5 39v359z" />
    <glyph glyph-name="Umacron" unicode="&#x16a;" horiz-adv-x="633" 
d="M453 837v-42h-274v42h274zM572 241q0 -65 -22.5 -112t-58.5 -77t-82 -44.5t-93 -14.5t-93 14.5t-82 44.5t-58 77t-22 112v469h45v-469q0 -55 18 -94t48 -64t67.5 -36.5t76.5 -11.5t77 11.5t67.5 36.5t48 64t18.5 94v469h45v-469z" />
    <glyph glyph-name="umacron" unicode="&#x16b;" horiz-adv-x="469" 
d="M371 627v-42h-274v42h274zM365 500h45v-500h-40l-5 90q-15 -19 -35 -36.5t-43 -31t-49 -21.5t-54 -8q-25 0 -48 7.5t-40 24t-27 41.5t-10 59v375h45v-375q0 -90 80 -90q25 0 50.5 9t49.5 24t44.5 34t36.5 39v359z" />
    <glyph glyph-name="Ubreve" unicode="&#x16c;" horiz-adv-x="633" 
d="M221 920h42v-49q0 -19 15 -27.5t37 -8.5q15 0 28.5 3.5t25.5 8.5v73h42v-95q-26 -15 -48.5 -22.5t-48.5 -7.5q-37 0 -65 17.5t-28 55.5v52zM572 241q0 -65 -22.5 -112t-58.5 -77t-82 -44.5t-93 -14.5t-93 14.5t-82 44.5t-58 77t-22 112v469h45v-469q0 -55 18 -94t48 -64
t67.5 -36.5t76.5 -11.5t77 11.5t67.5 36.5t48 64t18.5 94v469h45v-469z" />
    <glyph glyph-name="ubreve" unicode="&#x16d;" horiz-adv-x="469" 
d="M139 710h42v-49q0 -19 15 -27.5t37 -8.5q15 0 28.5 3.5t25.5 8.5v73h42v-95q-26 -15 -48.5 -22.5t-48.5 -7.5q-37 0 -65 17.5t-28 55.5v52zM365 500h45v-500h-40l-5 90q-15 -19 -35 -36.5t-43 -31t-49 -21.5t-54 -8q-25 0 -48 7.5t-40 24t-27 41.5t-10 59v375h45v-375
q0 -90 80 -90q25 0 50.5 9t49.5 24t44.5 34t36.5 39v359z" />
    <glyph glyph-name="Uring" unicode="&#x16e;" horiz-adv-x="633" 
d="M248 858q0 31 19 50t49 19q31 0 50 -19t19 -50q0 -30 -19 -49t-50 -19q-30 0 -49 19t-19 49zM284 858q0 -32 32 -32q33 0 33 32q0 33 -33 33q-32 0 -32 -33zM572 241q0 -65 -22.5 -112t-58.5 -77t-82 -44.5t-93 -14.5t-93 14.5t-82 44.5t-58 77t-22 112v469h45v-469
q0 -55 18 -94t48 -64t67.5 -36.5t76.5 -11.5t77 11.5t67.5 36.5t48 64t18.5 94v469h45v-469z" />
    <glyph glyph-name="uring" unicode="&#x16f;" horiz-adv-x="469" 
d="M166 648q0 31 19 50t49 19q31 0 50 -19t19 -50q0 -30 -19 -49t-50 -19q-30 0 -49 19t-19 49zM202 648q0 -32 32 -32q33 0 33 32q0 33 -33 33q-32 0 -32 -33zM365 500h45v-500h-40l-5 90q-15 -19 -35 -36.5t-43 -31t-49 -21.5t-54 -8q-25 0 -48 7.5t-40 24t-27 41.5
t-10 59v375h45v-375q0 -90 80 -90q25 0 50.5 9t49.5 24t44.5 34t36.5 39v359z" />
    <glyph glyph-name="Uhungarumlaut" unicode="&#x170;" horiz-adv-x="633" 
d="M287 795h-46l79 125h60zM391 795h-46l79 125h60zM572 241q0 -65 -22.5 -112t-58.5 -77t-82 -44.5t-93 -14.5t-93 14.5t-82 44.5t-58 77t-22 112v469h45v-469q0 -55 18 -94t48 -64t67.5 -36.5t76.5 -11.5t77 11.5t67.5 36.5t48 64t18.5 94v469h45v-469z" />
    <glyph glyph-name="uhungarumlaut" unicode="&#x171;" horiz-adv-x="469" 
d="M204 585h-46l79 125h60zM308 585h-46l79 125h60zM365 500h45v-500h-40l-5 90q-15 -19 -35 -36.5t-43 -31t-49 -21.5t-54 -8q-25 0 -48 7.5t-40 24t-27 41.5t-10 59v375h45v-375q0 -90 80 -90q25 0 50.5 9t49.5 24t44.5 34t36.5 39v359z" />
    <glyph glyph-name="Uogonek" unicode="&#x172;" horiz-adv-x="633" 
d="M374 0q-16 -4 -31 -5.5t-27 -1.5q-47 0 -93 14.5t-82 44.5t-58 77t-22 112v469h45v-469q0 -55 18 -94t48 -64t67.5 -36.5t76.5 -11.5t77 11.5t67.5 36.5t48 64t18.5 94v469h45v-469q0 -85 -37 -138.5t-91 -80.5q-41 -32 -71 -61t-30 -58q0 -40 40 -40q17 0 38 9l6 -39
q-24 -10 -46 -10q-33 0 -56 19.5t-23 56.5q0 36 21.5 60t50.5 41z" />
    <glyph glyph-name="uogonek" unicode="&#x173;" horiz-adv-x="469" 
d="M365 90q-15 -19 -35 -36.5t-43 -31t-49 -21.5t-54 -8q-25 0 -48 7.5t-40 24t-27 41.5t-10 59v375h45v-375q0 -90 80 -90q25 0 50.5 9t49.5 24t44.5 34t36.5 39v359h45v-500q-31 -22 -51 -45t-20 -52q0 -40 40 -40q17 0 38 9l6 -39q-24 -10 -46 -10q-33 0 -56 19.5
t-23 56.5q0 36 21.5 60t50.5 41z" />
    <glyph glyph-name="Wcircumflex" unicode="&#x174;" horiz-adv-x="828" 
d="M350 795h-52l97 125h38l97 -125h-52l-64 82zM232 0l-217 710h45l195 -646l195 646h45l-59 -192l137 -454l195 646h45l-217 -710h-46l-136 445l-136 -445h-46z" />
    <glyph glyph-name="wcircumflex" unicode="&#x175;" horiz-adv-x="583" 
d="M227 585h-52l97 125h38l97 -125h-52l-64 82zM291 325l-83 -297q-5 -16 -12.5 -22t-25.5 -6h-16l-141 500h46l118 -440l118 440h46l-27 -96l92 -344l118 440h46l-141 -500h-16q-18 0 -25.5 6t-12.5 22z" />
    <glyph glyph-name="Ycircumflex" unicode="&#x176;" horiz-adv-x="561" 
d="M216 795h-52l97 125h38l97 -125h-52l-64 82zM500 710h49l-246 -424v-286h-45v286l-246 424h49l219 -379z" />
    <glyph glyph-name="ycircumflex" unicode="&#x177;" horiz-adv-x="478" 
d="M175 585h-52l97 125h38l97 -125h-52l-64 82zM409 500h49l-244 -622q-17 -45 -46 -65t-65 -20q-41 0 -89 28l5 43q43 -29 84 -29q25 0 43.5 13t29.5 43l42 109l-198 500h49l171 -443z" />
    <glyph glyph-name="Ydieresis" unicode="&#x178;" horiz-adv-x="561" 
d="M147 852q0 17 12 29t29 12t29 -12t12 -29t-12 -29t-29 -12t-29 12t-12 29zM331 852q0 17 12 29t29 12t29 -12t12 -29t-12 -29t-29 -12t-29 12t-12 29zM500 710h49l-246 -424v-286h-45v286l-246 424h49l219 -379z" />
    <glyph glyph-name="Zacute" unicode="&#x179;" horiz-adv-x="538" 
d="M288 795h-46l79 125h60zM30 0v42l398 626h-370v42h421v-42l-399 -626h428v-42h-478z" />
    <glyph glyph-name="zacute" unicode="&#x17a;" horiz-adv-x="434" 
d="M239 585h-46l79 125h60zM30 0v42l305 416h-294v42h345v-42l-306 -416h320v-42h-370z" />
    <glyph glyph-name="Zdotaccent" unicode="&#x17b;" horiz-adv-x="538" 
d="M228 852q0 17 12 29t29 12t29 -12t12 -29t-12 -29t-29 -12t-29 12t-12 29zM30 0v42l398 626h-370v42h421v-42l-399 -626h428v-42h-478z" />
    <glyph glyph-name="zdotaccent" unicode="&#x17c;" horiz-adv-x="434" 
d="M176 642q0 17 12 29t29 12t29 -12t12 -29t-12 -29t-29 -12t-29 12t-12 29zM30 0v42l305 416h-294v42h345v-42l-306 -416h320v-42h-370z" />
    <glyph glyph-name="Zcaron" unicode="&#x17d;" horiz-adv-x="538" 
d="M269 838l64 82h52l-97 -125h-38l-97 125h52zM30 0v42l398 626h-370v42h421v-42l-399 -626h428v-42h-478z" />
    <glyph glyph-name="zcaron" unicode="&#x17e;" horiz-adv-x="434" 
d="M217 628l64 82h52l-97 -125h-38l-97 125h52zM30 0v42l305 416h-294v42h345v-42l-306 -416h320v-42h-370z" />
    <glyph glyph-name="florin" unicode="&#x192;" horiz-adv-x="300" 
d="M125 380l10 227q3 62 35 97.5t87 35.5q14 0 29 -2.5t32 -8.5l-6 -41q-29 10 -54 10q-35 0 -55.5 -20.5t-22.5 -71.5l-10 -226h99v-42h-101l-17 -407q-3 -67 -33 -102.5t-79 -35.5q-32 0 -67 15l6 43q16 -8 29.5 -12t28.5 -4q29 0 48.5 21.5t21.5 77.5l17 404h-95v42h97z
" />
    <glyph glyph-name="circumflex" unicode="&#x2c6;" horiz-adv-x="233" 
d="M52 585h-52l97 125h38l97 -125h-52l-64 82z" />
    <glyph glyph-name="caron" unicode="&#x2c7;" horiz-adv-x="232" 
d="M116 628l64 82h52l-97 -125h-38l-97 125h52z" />
    <glyph glyph-name="breve" unicode="&#x2d8;" horiz-adv-x="241" 
d="M23 710h42v-49q0 -19 15 -27.5t37 -8.5q15 0 28.5 3.5t25.5 8.5v73h42v-95q-26 -15 -48.5 -22.5t-48.5 -7.5q-37 0 -65 17.5t-28 55.5v52z" />
    <glyph glyph-name="dotaccent" unicode="&#x2d9;" horiz-adv-x="140" 
d="M29 642q0 17 12 29t29 12t29 -12t12 -29t-12 -29t-29 -12t-29 12t-12 29z" />
    <glyph glyph-name="ring" unicode="&#x2da;" horiz-adv-x="193" 
d="M28 648q0 31 19 50t49 19q31 0 50 -19t19 -50q0 -30 -19 -49t-50 -19q-30 0 -49 19t-19 49zM64 648q0 -32 32 -32q33 0 33 32q0 33 -33 33q-32 0 -32 -33z" />
    <glyph glyph-name="ogonek" unicode="&#x2db;" horiz-adv-x="158" 
d="M129 0q-31 -22 -51 -45t-20 -52q0 -40 40 -40q17 0 38 9l6 -39q-24 -10 -46 -10q-33 0 -56 19.5t-23 56.5q0 36 21.5 60t50.5 41h40z" />
    <glyph glyph-name="tilde" unicode="&#x2dc;" horiz-adv-x="295" 
d="M204 639q11 0 21 11t13 34l43 -11q-7 -35 -28 -55.5t-50 -20.5q-18 0 -33 7.5t-28.5 17t-25.5 17t-24 7.5t-22 -11t-13 -34l-43 11q7 35 28 55.5t50 20.5q17 0 31.5 -7.5t28 -17t26.5 -17t26 -7.5z" />
    <glyph glyph-name="hungarumlaut" unicode="&#x2dd;" horiz-adv-x="258" 
d="M54 585h-46l79 125h60zM158 585h-46l79 125h60z" />
    <glyph glyph-name="pi" unicode="&#x3c0;" horiz-adv-x="544" 
d="M113 0v458h-80v42h474v-42h-80v-364q0 -32 11.5 -45.5t31.5 -13.5q23 0 54 17l3 -41q-30 -18 -60 -18q-37 0 -61 26t-24 74v365h-224v-458h-45z" />
    <glyph glyph-name="uni0E01" unicode="&#xe01;" horiz-adv-x="499" 
d="M429 0h-52v359q0 26 -11 45.5t-30 32.5t-45 19.5t-56 6.5q-50 0 -84 -14.5t-55 -42.5q19 -7 42 -17t46 -24q-21 -14 -41 -38t-20 -51v-276h-53v278q0 23 14.5 44.5t32.5 32.5q-23 11 -46 18l-46 14q26 57 80 90t129 33q88 0 141.5 -38t53.5 -114v-358z" />
    <glyph glyph-name="uni0E02" unicode="&#xe02;" horiz-adv-x="466" 
d="M402 90q0 -53 -27.5 -71.5t-87.5 -18.5h-200v48h63v203q0 38 45 77t45 67q0 32 -21.5 52.5t-58.5 20.5q-23 0 -39 -5.5t-23 -13.5q29 0 52.5 -19.5t23.5 -50.5q0 -33 -22 -54.5t-54 -21.5q-34 0 -58.5 22.5t-24.5 64.5q0 29 13 51.5t34 38t47 23.5t52 8q60 0 95 -31.5
t35 -85.5q0 -42 -45 -86q-43 -43 -43 -75v-185h66q52 0 62 6q19 9 19 51v395h52v-410zM134 379q0 14 -11 24t-25 10t-25.5 -10t-11.5 -24t11.5 -24t25.5 -10t25 10t11 24z" />
    <glyph glyph-name="uni0E03" unicode="&#xe03;" horiz-adv-x="497" 
d="M425 90q0 -53 -27.5 -71.5t-86.5 -18.5h-201v48h63v204q0 36 44 80q45 43 45 71q0 10 -3.5 20t-8 18t-9.5 13t-8 5t-9.5 -4t-14 -10t-15 -13t-12.5 -13q-20 15 -39 28.5t-24 13.5q-11 -8 -20 -18.5t-16 -24.5l19 2q31 0 53 -19t22 -50q0 -15 -6.5 -28.5t-17 -23.5
t-24 -16t-28.5 -6q-35 0 -59 23t-24 68q0 24 8 46.5t22.5 41.5t33 33.5t39.5 21.5q12 -5 27.5 -16t30.5 -23q7 6 16 12.5t17.5 12t15.5 9t10 3.5q18 0 43 -29q31 -36 31 -79q0 -33 -26 -64q-61 -70 -61 -98v-191h102q6 0 10 0.5t6 0.5q30 6 30 56v395h52v-410zM135 351
q0 14 -10 23t-24 9q-16 0 -26 -9t-10 -23t10 -24.5t26 -10.5q12 0 23 10.5t11 24.5z" />
    <glyph glyph-name="uni0E04" unicode="&#xe04;" horiz-adv-x="508" 
d="M434 0h-52v332q0 33 -11 57.5t-30.5 41t-46 24.5t-57.5 8q-34 0 -63 -9.5t-50 -26.5t-33 -40.5t-12 -51.5q0 -56 18 -130q4 -16 5 -48.5t1 -68.5q3 37 8 66t11.5 56t16 55t22.5 62q23 61 83 61q39 0 62 -21.5t23 -58.5q0 -35 -25 -57t-60 -22q-31 0 -56 20
q-21 -60 -39 -123t-27 -126h-60v75q0 50 -23 163q-12 62 -12 97q0 43 18 76t48 55t67.5 33.5t76.5 11.5q45 0 81 -12.5t62 -35.5t40 -54t14 -69v-340zM284 308q0 38 -40 38t-40 -38q0 -15 12 -27t28 -12q18 0 29 11.5t11 27.5z" />
    <glyph glyph-name="uni0E05" unicode="&#xe05;" horiz-adv-x="511" 
d="M433 0h-52v367q0 38 -16 59t-45 32l-81 -55l-88 58q-33 -8 -53 -39t-20 -69q0 -49 10.5 -100t10.5 -100q0 -20 -0.5 -36.5t-0.5 -28.5q3 24 8 53.5t12 59.5t16.5 58.5t19.5 50.5q13 35 35.5 50.5t50.5 15.5q38 0 61.5 -21.5t23.5 -58.5q0 -34 -26 -56t-59 -22t-57 20
q-20 -54 -38.5 -118t-27.5 -120h-60v74q0 29 -4 64.5t-12 79.5q-15 89 -15 130q0 33 10.5 61.5t29.5 49.5t44 34t54 16l72 -46l76 48q54 -12 87.5 -43.5t33.5 -91.5v-376zM279 296q0 39 -39 39q-19 0 -29.5 -10.5t-10.5 -28.5q0 -14 11.5 -26t28.5 -12q18 0 28.5 11t10.5 27
z" />
    <glyph glyph-name="uni0E06" unicode="&#xe06;" horiz-adv-x="542" 
d="M473 55q0 -55 -50 -55h-20q-12 28 -33 51.5t-47.5 42t-56 31t-58.5 17.5v-67q0 -31 -21.5 -54.5t-58.5 -23.5q-41 0 -65.5 26t-24.5 66q0 45 33 73.5t85 28.5v55q0 39 50 83q51 47 51 73q0 10 -3.5 20t-8 18.5t-9.5 13.5t-8 5t-9.5 -4.5t-14 -10.5t-15 -13t-12.5 -12
q-20 15 -39 28t-24 13q-22 -14 -36 -42l19 2q31 0 53 -19.5t22 -49.5q0 -32 -23 -53t-53 -21q-35 0 -59 23t-24 67q0 24 8 47t22.5 42t33.5 33t40 21q11 -5 26.5 -15.5t31.5 -23.5q6 6 15 13t17.5 12.5t15.5 9t10 3.5q17 0 43 -29q31 -34 31 -79q0 -35 -30 -67
q-69 -72 -69 -100v-48q63 -8 118 -41.5t95 -82.5v438h52v-445zM131 351q0 14 -10.5 23t-24.5 9q-15 0 -25.5 -9t-10.5 -23q0 -15 10.5 -25t25.5 -10q12 0 23.5 10t11.5 25zM156 80v68q-31 0 -51.5 -16.5t-20.5 -42.5q0 -51 41 -51q31 0 31 42z" />
    <glyph glyph-name="uni0E07" unicode="&#xe07;" horiz-adv-x="472" 
d="M391 93q0 -52 -24 -72.5t-77 -20.5h-83q-12 49 -33 108t-48 117.5t-59 111.5t-66 91l47 21q30 -34 61.5 -84t58.5 -105.5t48 -111t31 -100.5h35q33 0 45 10t12 44v247q-19 -9 -37 -9q-35 0 -59.5 23.5t-24.5 61.5q0 37 25.5 61.5t60.5 24.5q41 0 64 -25t23 -67v-326z
M343 425q0 40 -40 40t-40 -40t40 -40t40 40z" />
    <glyph glyph-name="uni0E08" unicode="&#xe08;" horiz-adv-x="470" 
d="M401 354q0 -34 -10 -76t-30 -93q-46 -114 -54 -185h-67l-47 209q-24 -18 -52 -18q-34 0 -59 22.5t-25 59.5q0 36 24.5 59.5t59.5 23.5q75 0 92 -80l40 -193q2 17 54 161q21 62 21 109q0 26 -11 46t-30 34.5t-45 22t-56 7.5q-57 0 -98.5 -26.5t-50.5 -74.5h-55
q0 39 19.5 67t49.5 46t66 27t69 9q37 0 72 -9t62.5 -28t44 -48.5t16.5 -71.5zM180 273q0 19 -11.5 30t-27.5 11q-39 0 -39 -41q0 -39 39 -39q16 0 27.5 11t11.5 28z" />
    <glyph glyph-name="uni0E09" unicode="&#xe09;" horiz-adv-x="547" 
d="M507 80q0 -37 -24.5 -59.5t-62.5 -22.5q-37 0 -62.5 23.5t-25.5 58.5q0 11 3 20q2 2 2.5 5.5t3.5 8.5q-20 -5 -43 -16.5t-45 -27.5t-40.5 -34t-29.5 -36h-48v185q-9 -5 -18 -6.5t-17 -1.5q-35 0 -58.5 21t-23.5 59q0 34 25 56t58 22q38 0 62 -23.5t24 -62.5v-174
q41 39 97 65t118 26v191q0 53 -37 79.5t-100 26.5q-57 0 -100 -24t-54 -77h-51q3 33 19.5 60.5t43.5 47t63 30t79 10.5q86 0 137.5 -40.5t51.5 -109.5v-200q53 -23 53 -80zM139 257q0 16 -11 27t-27 11t-27.5 -11t-11.5 -27q0 -17 11.5 -28t27.5 -11t27 11t11 28zM461 80
q0 42 -41 42q-17 0 -29.5 -11.5t-12.5 -30.5q0 -18 12 -29.5t30 -11.5q17 0 29 11.5t12 29.5z" />
    <glyph glyph-name="uni0E0A" unicode="&#xe0a;" horiz-adv-x="511" 
d="M438 500q2 -4 2 -8v-11q0 -37 -18.5 -68t-49.5 -42q31 -7 47.5 -31t16.5 -53v-197q0 -53 -27.5 -71.5t-87.5 -18.5h-225v48h63v203q0 39 44 77q46 40 46 67q0 32 -22 52.5t-58 20.5q-23 0 -39 -5.5t-24 -13.5q30 0 53.5 -19.5t23.5 -50.5q0 -33 -22 -54.5t-55 -21.5
q-34 0 -58.5 22.5t-24.5 64.5q0 43 36 79q42 42 111 42q60 0 95 -31.5t35 -85.5q0 -42 -45 -86q-44 -44 -44 -75v-185h91q51 0 63 6q18 9 18 51v182q0 26 -15.5 42t-48.5 16v48q29 0 49 25t20 62v9.5t-2 10.5h52zM142 379q0 14 -11 24t-25 10t-25 -10t-11 -24t11 -24t25 -10
t25 10t11 24z" />
    <glyph glyph-name="uni0E0B" unicode="&#xe0b;" horiz-adv-x="529" 
d="M456 500q2 -4 2 -8v-11q0 -37 -18.5 -68t-48.5 -42q30 -7 46.5 -31t16.5 -53v-197q0 -53 -27.5 -71.5t-87.5 -18.5h-225v48h62v204q0 34 44 80q45 42 45 71q0 10 -3 20t-7.5 18t-9.5 13t-8 5t-9.5 -4t-14.5 -10t-15.5 -13t-12.5 -13q-20 15 -38.5 28.5t-23.5 13.5
q-11 -8 -20 -18.5t-16 -24.5l18 2q31 0 53.5 -19t22.5 -50t-23.5 -52.5t-53.5 -21.5q-35 0 -59 23t-24 68q0 24 8.5 46.5t22.5 41.5t33 33.5t40 21.5q11 -5 27 -16t31 -23q7 6 16 12.5t17.5 12t15.5 9t10 3.5q17 0 42 -29q31 -34 31 -79q0 -33 -26 -64q-60 -70 -60 -98v-191
h91q51 0 63 6q18 9 18 51v182q0 26 -15.5 42t-48.5 16v48q29 0 49 25t20 62v9.5t-2 10.5h52zM139 351q0 14 -10 23t-25 9t-25 -9t-10 -23t10 -24.5t25 -10.5q13 0 24 10.5t11 24.5z" />
    <glyph glyph-name="uni0E0C" unicode="&#xe0c;" horiz-adv-x="744" 
d="M665 45q0 -26 -7.5 -35.5t-33.5 -9.5h-15q-25 34 -63 61.5t-77 41.5q4 -8 4.5 -14t0.5 -14q0 -35 -25 -57t-60 -22t-59.5 22t-24.5 57q0 31 20.5 55t57.5 28v201q0 53 -40.5 78.5t-100.5 25.5q-50 0 -84 -14.5t-56 -41.5q19 -7 42 -17.5t46 -24.5q-10 -6 -21 -16t-20 -22
t-14.5 -25t-5.5 -25v-125q19 8 38 8q34 0 59 -23.5t25 -61.5q0 -36 -26 -59.5t-61 -23.5q-41 0 -64 23.5t-23 65.5v197q0 23 14 45t32 33q-23 11 -45.5 18t-45.5 14q26 57 79.5 90t128.5 33q89 0 142.5 -38.5t53.5 -114.5v-203q22 -2 46 -10t47.5 -20t45 -27.5t38.5 -32.5
v435h52v-455zM206 75q0 40 -41 40q-39 0 -39 -40t39 -40q41 0 41 40zM430 75q0 39 -41 39q-17 0 -29 -10.5t-12 -28.5q0 -16 12 -27.5t29 -11.5t29 11.5t12 27.5z" />
    <glyph glyph-name="uni0E0D" unicode="&#xe0d;" horiz-adv-x="753" 
d="M669 91q0 -53 -30 -73q-24 -18 -85 -18h-230v49h63v310q0 53 -40.5 78.5t-100.5 25.5q-50 0 -84 -14.5t-56 -42.5q19 -7 42 -17t46 -24q-10 -7 -21 -17t-20 -21.5t-14.5 -24.5t-5.5 -26v-125q11 5 20 7t18 2q34 0 59 -23.5t25 -61.5q0 -37 -26 -60t-61 -23
q-41 0 -64 23.5t-23 65.5v197q0 23 14 44.5t32 32.5q-23 11 -45.5 18t-45.5 15q26 57 79.5 89.5t128.5 32.5q89 0 142.5 -38t53.5 -114v-309h131q13 0 16 1q30 6 30 55v395h52v-409zM210 75q0 40 -41 40q-39 0 -39 -40t39 -40q41 0 41 40zM669 -45q0 -39 -18 -69
t-46.5 -49.5t-63.5 -29.5t-70 -10q-61 0 -99 25.5t-38 71.5q0 29 22 50t52 21q33 0 53.5 -19.5t20.5 -51.5q0 -17 -6.5 -29.5t-15.5 -21.5q25 0 52.5 6t51 19.5t38.5 35t15 51.5h52zM441 -106q0 13 -9.5 22t-23.5 9t-23 -9t-9 -22q0 -14 9 -23t23 -9t23.5 9t9.5 23z" />
    <glyph glyph-name="uni0E0E" unicode="&#xe0e;" horiz-adv-x="581" 
d="M493 -176q0 -74 -75 -74h-27q-25 50 -69 88q-20 -38 -55 -61t-79 -23q-41 0 -67 20.5t-26 57.5q0 19 9 36t24.5 29.5t37 19.5t46.5 7t52 -6q10 -3 30 -10q1 2 1 8v12v7.5t-2 12.5h49v-3l1 -5v-3v-14q0 -11 -1 -20.5t-4 -18.5q50 -34 80 -85q15 0 18 8q5 5 5 27v523
q0 53 -41 78.5t-101 25.5q-50 0 -84 -14t-56 -42q19 -7 42.5 -17t46.5 -24q-22 -14 -41.5 -38t-19.5 -51v-195q0 -42 -23 -65.5t-61 -23.5q-34 0 -57.5 22.5t-23.5 60.5t23 61t56 23q23 0 33 -7v125q0 23 14.5 45t32.5 33q-24 11 -46.5 18t-45.5 14q26 57 80 90t129 33
q88 0 141.5 -38t53.5 -115v-532zM140 74q0 17 -11 28t-27 11q-38 0 -38 -39q0 -18 10 -29.5t28 -11.5q16 0 27 11.5t11 29.5zM280 -138q-29 14 -68 14q-29 0 -49 -11t-20 -33q0 -15 13 -23t32 -8q31 0 54.5 16.5t37.5 44.5z" />
    <glyph glyph-name="uni0E0F" unicode="&#xe0f;" horiz-adv-x="577" 
d="M491 -176q0 -74 -76 -74h-23l-51 61l-48 -61h-31l-31 44q-34 -45 -92 -45q-36 0 -61.5 21t-25.5 54q0 34 26.5 57t64.5 23q18 0 36.5 -6t35.5 -18q0 4 0.5 11t0.5 14v24h52v-29.5t-1.5 -22t-3.5 -18.5t-7 -20l24 -30q14 17 23 27.5t13 15.5q5 5 11.5 11t14.5 14
q11 -8 22.5 -20t25.5 -29q5 -5 10.5 -11.5t14.5 -17.5q24 0 24 40v518q0 26 -11 45.5t-30 32.5t-45 19.5t-56 6.5q-50 0 -84 -14.5t-56 -41.5q19 -8 42.5 -18t46.5 -24q-10 -6 -21 -15.5t-20 -21.5t-14.5 -25t-5.5 -26v-196q0 -42 -23 -65.5t-61 -23.5q-34 0 -57.5 22.5
t-23.5 60.5t23 61.5t56 23.5q23 0 33 -7v125q0 23 14.5 44.5t32.5 32.5q-24 11 -46.5 18.5t-45.5 14.5q26 57 80 89.5t129 32.5q88 0 141.5 -38t53.5 -114v-532zM138 73q0 18 -11 29t-27 11q-38 0 -38 -40q0 -18 10 -29t28 -11q16 0 27 11t11 29zM199 -172q-19 31 -56 31
q-18 0 -30.5 -10t-12.5 -25q0 -14 12 -23t27 -9q20 0 36 11t24 25z" />
    <glyph glyph-name="uni0E10" unicode="&#xe10;" horiz-adv-x="493" 
d="M444 474q-18 -21 -38 -31.5t-51 -10.5q-35 0 -85 15q-49 15 -75 15q-42 0 -69.5 -13.5t-43.5 -36.5q37 0 77.5 -3t90.5 -10q79 -12 117 -37.5t38 -75.5q0 -14 -13 -54.5t-41 -109.5q-26 -62 -26 -122h-67l-55 191q-24 -21 -55 -21q-33 0 -58 22t-25 60q0 37 25 60.5
t58 23.5q39 0 60.5 -21.5t32.5 -59.5l47 -176q2 11 13 43t32 87q19 47 19 72q0 49 -87 68q-23 7 -57 11.5t-70.5 7t-71 3.5t-59.5 1q14 65 60.5 101.5t121.5 36.5q35 0 91 -17q27 -7 44 -11t22 -4q18 0 33 8.5t26 19.5zM187 252q0 42 -39 42q-38 0 -38 -42q0 -39 38 -39
q17 0 28 11.5t11 27.5zM411 -177q0 -72 -70 -72h-36l-39 37l-38 -37h-41l-23 40q-18 -18 -38 -27t-46 -9q-35 0 -56 20t-21 50q0 34 25 54t58 20q37 0 64 -22l4 48h49q0 -54 -13 -90l25 -34q4 4 11.5 11t15.5 13.5t15 12.5t10 8l27 -22q11 -9 17 -15l9 -9h15q23 0 23 25v19
l-18 -3q-31 0 -51 19.5t-20 48.5q0 27 21 47t50 20q30 0 50.5 -19t20.5 -48v-86zM371 -91q0 31 -31 31t-31 -31q0 -14 8.5 -23t22.5 -9t22.5 9t8.5 23zM134 -170q-16 24 -48 24q-14 0 -25 -9t-11 -20q0 -25 32 -25q18 0 28 6.5t24 23.5z" />
    <glyph glyph-name="uni0E11" unicode="&#xe11;" horiz-adv-x="618" 
d="M543 0h-53v399q0 31 -9.5 48t-29.5 17q-18 0 -32 -20q-5 -7 -10.5 -18l-12.5 -25l-168 -401h-61v252q0 34 44 80q45 42 45 71q0 10 -3 20t-7.5 18t-9.5 13t-8 5t-9.5 -4t-14.5 -10t-15.5 -13t-12.5 -13q-20 15 -38.5 28.5t-23.5 13.5q-11 -8 -20 -18.5t-16 -24.5l18 2
q31 0 53.5 -19t22.5 -50t-23.5 -52.5t-53.5 -21.5q-35 0 -59 23t-24 68q0 24 8.5 46.5t22.5 41.5t33 33.5t40 21.5q11 -5 27 -16t31 -23q7 6 16 12.5t17.5 12t15.5 9t10 3.5q17 0 42 -29q31 -34 31 -79q0 -33 -26 -64q-60 -70 -60 -98v-134l134 319q16 34 38 59.5t63 25.5
q88 0 88 -103v-406zM130 351q0 14 -10 23t-25 9t-25 -9t-10 -23t10 -24.5t25 -10.5q13 0 24 10.5t11 24.5z" />
    <glyph glyph-name="uni0E12" unicode="&#xe12;" horiz-adv-x="738" 
d="M666 43q0 -23 -7 -33t-29 -10h-20q-20 27 -58 56.5t-81 44.5l4 -25q0 -35 -25 -57.5t-60 -22.5t-60 22.5t-25 57.5q0 30 21 54t58 28v207q0 41 -16 61.5t-45 31.5l-81 -55l-88 58q-33 -8 -53 -39t-20 -69q0 -20 2 -41.5t6 -47.5q0 -5 13 -76q5 -23 6.5 -48.5t1.5 -56.5
q8 13 22 34.5t31 44.5q7 8 13 16.5t14 16.5q5 5 10.5 12.5t13.5 15.5q-28 6 -46 28t-18 50q0 35 24.5 58t59.5 23t60 -22.5t25 -55.5q0 -26 -15 -48t-32 -39l-18 -20q-14 -14 -26.5 -29.5t-23.5 -32.5q-23 -32 -46 -68.5t-38 -66.5h-60v74q0 29 -4 64.5t-12 79.5
q-15 89 -15 130q0 33 10.5 61.5t29.5 49.5t44 34t53 16l73 -46l76 48q54 -12 87.5 -43.5t33.5 -91.5v-221q23 -2 47 -10t47 -20t44.5 -27.5t39.5 -32.5v435h52v-457zM274 302q0 38 -40 38t-40 -38q0 -15 11.5 -27t28.5 -12t28.5 11.5t11.5 27.5zM431 76q0 38 -41 38
q-18 0 -29.5 -10.5t-11.5 -27.5t11.5 -28.5t29.5 -11.5q16 0 28.5 11.5t12.5 28.5z" />
    <glyph glyph-name="uni0E13" unicode="&#xe13;" horiz-adv-x="790" 
d="M740 81q0 -37 -24.5 -59.5t-62.5 -22.5t-63 23.5t-25 58.5q0 13 5 28q-16 -6 -34.5 -17.5t-35.5 -25.5t-32 -31t-25 -34h-50v359q0 26 -11 45.5t-30 32.5t-45 19.5t-56 6.5q-50 0 -84 -14.5t-56 -41.5q19 -7 42.5 -17.5t46.5 -24.5q-10 -6 -21 -15.5t-20 -21.5t-14.5 -25
t-5.5 -26v-125q19 8 37 8q35 0 59.5 -23.5t24.5 -61.5q0 -36 -26 -59.5t-61 -23.5q-40 0 -63.5 23.5t-23.5 65.5v197q0 23 14.5 45t32.5 33q-23 11 -46 18l-46 14q26 57 80 90t129 33q88 0 141.5 -38.5t53.5 -114.5v-280q18 18 41 34t48 28t51 19t50 7v334h52v-340
q53 -24 53 -80zM693 81q0 39 -40 39q-18 0 -30 -10.5t-12 -28.5q0 -16 12 -27t30 -11q16 0 28 11t12 27zM215 76q0 40 -40 40t-40 -40t40 -40t40 40z" />
    <glyph glyph-name="uni0E14" unicode="&#xe14;" horiz-adv-x="524" 
d="M449 0h-52v345q0 56 -40 87t-109 31q-32 0 -60 -8.5t-49 -23.5t-33 -36.5t-12 -48.5q-1 -4 -1 -12v-9q0 -16 2.5 -36.5t7.5 -44.5q25 -118 25 -156q11 17 23 37t29 40l51 63q-28 7 -46 26.5t-18 50.5q0 34 23.5 58t59.5 24q38 0 62 -22.5t24 -55.5q0 -23 -12 -43t-26 -34
q-22 -25 -34 -38t-14 -16q-7 -10 -15 -19.5t-16.5 -22t-19 -28.5t-24.5 -39t-23.5 -39.5t-14.5 -29.5h-60v69q0 42 -23 166q-12 68 -12 104t15 67.5t42 54.5t65.5 36.5t84.5 13.5q45 0 82 -11.5t63 -32.5t40.5 -50t14.5 -63v-354zM291 307q0 38 -41 38q-39 0 -39 -38
q0 -15 11.5 -27t27.5 -12q18 0 29.5 11t11.5 28z" />
    <glyph glyph-name="uni0E15" unicode="&#xe15;" horiz-adv-x="510" 
d="M441 0h-52v365q0 41 -16 61.5t-45 31.5l-81 -55l-88 58q-33 -8 -53 -39t-20 -69q0 -20 2 -41.5t6 -47.5q0 -5 13 -76q5 -23 6.5 -48.5t1.5 -56.5q19 29 38.5 57.5t41.5 54.5q5 5 10.5 12.5t13.5 15.5q-27 6 -45.5 28t-18.5 50q0 35 24.5 58t59.5 23t60 -22.5t25 -55.5
q0 -23 -12 -43t-26 -34q-9 -11 -18 -20.5t-18 -20.5q-12 -14 -22.5 -26t-18.5 -25q-23 -32 -46 -69t-38 -66h-60v74q0 29 -4 64.5t-12 79.5q-15 89 -15 130q0 33 10.5 61.5t29.5 49.5t44 34t54 16l72 -46l76 48q54 -12 87.5 -43.5t33.5 -91.5v-376zM279 302q0 38 -40 38
t-40 -38q0 -15 11.5 -27t28.5 -12t28.5 11t11.5 28z" />
    <glyph glyph-name="uni0E16" unicode="&#xe16;" horiz-adv-x="518" 
d="M430 0h-52v359q0 26 -11 45.5t-30 32.5t-45 19.5t-56 6.5q-50 0 -84 -14.5t-55 -41.5q19 -7 42 -17.5t46 -24.5q-10 -6 -21 -16t-20 -22t-14.5 -25t-5.5 -25v-125q19 8 37 8q35 0 60 -23.5t25 -61.5q0 -18 -7 -33t-19 -26.5t-28 -17.5t-33 -6q-41 0 -64 23.5t-23 65.5
v197q0 23 14 45t32 33q-23 11 -45.5 18t-46.5 14q26 57 80 90t129 33q88 0 141.5 -38.5t53.5 -114.5v-358zM200 75q0 40 -40 40t-40 -40t40 -40t40 40z" />
    <glyph glyph-name="uni0E17" unicode="&#xe17;" horiz-adv-x="579" 
d="M491 0h-52v399q0 65 -39 65q-17 0 -30 -17t-24 -46l-144 -401h-61v349q-11 -5 -20 -7t-17 -2q-35 0 -59.5 23.5t-24.5 61.5q0 37 25.5 61.5t60.5 24.5q41 0 64 -25t23 -67v-206q0 -16 -0.5 -35t-1.5 -37t-2 -33.5t-2 -26.5q4 12 5 20t3 15q5 20 9 35t7 26l87 248
q16 41 40.5 63.5t62.5 22.5q90 0 90 -105v-406zM145 425q0 40 -40 40t-40 -40t40 -40t40 40z" />
    <glyph glyph-name="uni0E18" unicode="&#xe18;" horiz-adv-x="482" 
d="M442 474q-17 -20 -39 -31t-53 -11q-27 0 -80 14q-50 17 -80 17q-35 0 -58.5 -12.5t-37.5 -35.5q49 0 95 -4t88 -12q61 -15 90.5 -39t29.5 -69v-201q0 -53 -27.5 -71.5t-87.5 -18.5h-238v48h50v261h53v-261h116q51 0 63 6q19 9 19 51v188q0 21 -18 34t-42 20.5t-49 11.5
t-39 5q-31 0 -97 3q-64 3 -79 3q15 69 60 105t114 36q33 0 86 -17q51 -15 62 -15q9 0 15.5 0.5t12.5 3t13 8.5t19 17z" />
    <glyph glyph-name="uni0E19" unicode="&#xe19;" horiz-adv-x="560" 
d="M524 80q0 -37 -25 -59.5t-63 -22.5q-37 0 -62 23.5t-25 58.5q0 21 10 38q-23 -3 -48 -14.5t-47.5 -28t-42 -36t-32.5 -39.5h-50v349q-11 -5 -20 -7t-18 -2q-34 0 -59 23.5t-25 61.5q0 18 7 34t19 27t27.5 17.5t33.5 6.5q41 0 64 -24.5t23 -66.5v-345q45 42 105 67.5
t123 25.5v333h52v-340q53 -24 53 -80zM142 425q0 40 -39 40q-41 0 -41 -40t41 -40q39 0 39 40zM477 80q0 42 -41 42t-41 -42q0 -41 41 -41t41 41z" />
    <glyph glyph-name="uni0E1A" unicode="&#xe1a;" horiz-adv-x="556" 
d="M481 90q0 -52 -30 -72q-24 -18 -85 -18h-287v48h62v301q-11 -5 -19.5 -7t-17.5 -2q-35 0 -59.5 23.5t-24.5 61.5q0 37 25.5 61.5t60.5 24.5q41 0 64.5 -25t23.5 -67v-371h153q25 0 41 1.5t25 7t12.5 17t3.5 31.5v395h52v-410zM145 425q0 40 -40 40t-40 -40t40 -40t40 40z
" />
    <glyph glyph-name="uni0E1B" unicode="&#xe1b;" horiz-adv-x="569" 
d="M480 90q0 -52 -30 -72q-24 -18 -85 -18h-287v48h62v301q-11 -5 -19.5 -7t-17.5 -2q-35 0 -59.5 23.5t-24.5 61.5q0 37 25.5 61.5t60.5 24.5q41 0 64.5 -25t23.5 -67v-371h153q25 0 41 1.5t25 7t12.5 17t3.5 31.5v608h52v-623zM144 425q0 40 -40 40t-40 -40t40 -40t40 40z
" />
    <glyph glyph-name="uni0E1C" unicode="&#xe1c;" horiz-adv-x="520" 
d="M452 38q0 -38 -37 -38h-14l-147 209l-146 -209h-14q-37 0 -37 38v381q0 42 23.5 67t63.5 25q35 0 61 -24t26 -62t-24.5 -61.5t-59.5 -23.5q-9 0 -18 2t-20 7v-264l124 175h42l124 -175v415h53v-462zM186 425q0 40 -41 40q-39 0 -39 -40t39 -40q41 0 41 40z" />
    <glyph glyph-name="uni0E1D" unicode="&#xe1d;" horiz-adv-x="527" 
d="M455 38q0 -38 -37 -38h-14l-147 209l-146 -209h-14q-37 0 -37 38v381q0 42 23.5 67t63.5 25q35 0 61 -24t26 -62t-24.5 -61.5t-59.5 -23.5q-9 0 -18 2t-20 7v-264l124 175h42l124 -175v628h53v-675zM189 425q0 40 -41 40q-39 0 -39 -40t39 -40q41 0 41 40z" />
    <glyph glyph-name="uni0E1E" unicode="&#xe1e;" horiz-adv-x="620" 
d="M549 41q0 -41 -40 -41h-32l-136 412l-132 -412h-31q-41 0 -41 41v308q-11 -5 -19.5 -7t-17.5 -2q-35 0 -59.5 23.5t-24.5 61.5q0 18 7 34t19 27.5t27.5 18t33.5 6.5q40 0 63.5 -25t23.5 -67v-253q0 -31 -1.5 -58t-4.5 -41q4 19 8 36t12 43l114 354h47l117 -354
q2 -8 5.5 -23t8.5 -39q2 -3 4 -17q-2 23 -2.5 45.5t-1.5 53.5v334h53v-459zM141 425q0 40 -40 40t-40 -40t40 -40t40 40z" />
    <glyph glyph-name="uni0E1F" unicode="&#xe1f;" horiz-adv-x="641" 
d="M551 41q0 -41 -40 -41h-32l-136 412l-132 -412h-31q-41 0 -41 41v308q-11 -5 -19.5 -7t-17.5 -2q-35 0 -59.5 23.5t-24.5 61.5q0 18 7 34t19 27.5t27.5 18t33.5 6.5q40 0 63.5 -25t23.5 -67v-253q0 -31 -1.5 -58t-4.5 -41q4 19 8 36t12 43l114 354h47l117 -354
q2 -8 5.5 -23t8.5 -39q2 -3 4 -17q-2 23 -2.5 45.5t-1.5 53.5v547h53v-672zM143 425q0 40 -40 40t-40 -40t40 -40t40 40z" />
    <glyph glyph-name="uni0E20" unicode="&#xe20;" horiz-adv-x="571" 
d="M489 0h-52v359q0 26 -11 45.5t-30 32.5t-45 19.5t-56 6.5q-50 0 -84 -14.5t-56 -41.5q19 -7 42.5 -17.5t46.5 -24.5q-10 -6 -21 -15.5t-20 -21.5t-14.5 -25t-5.5 -26v-196q0 -42 -23 -65.5t-61 -23.5q-34 0 -57.5 22.5t-23.5 60.5q0 39 23 62t56 23q23 0 33 -7v125
q0 23 14.5 45t32.5 33q-24 11 -46.5 18t-45.5 14q26 57 80 90t129 33q88 0 141.5 -38.5t53.5 -114.5v-358zM136 75q0 18 -11 29t-27 11q-38 0 -38 -40q0 -17 10 -28.5t28 -11.5q16 0 27 11.5t11 28.5z" />
    <glyph glyph-name="uni0E21" unicode="&#xe21;" horiz-adv-x="532" 
d="M458 52q0 -31 -12.5 -41.5t-40.5 -10.5h-14q-14 27 -36 50.5t-48.5 42.5t-56 31.5t-58.5 17.5v-67q0 -32 -21.5 -55t-58.5 -23q-40 0 -64.5 25.5t-24.5 65.5q0 45 32.5 74t84.5 29v157q-19 -8 -37 -8q-35 0 -59.5 23.5t-24.5 61.5q0 18 7 33.5t19 27t27.5 18t32.5 6.5
q41 0 64 -24.5t23 -66.5v-233q58 -8 105 -34q33 -16 59.5 -38t48.5 -49v435h53v-448zM144 425q0 40 -40 40t-40 -40t40 -40t40 40zM140 80v65q-29 0 -49.5 -15.5t-20.5 -41.5q0 -47 39 -47q31 0 31 39z" />
    <glyph glyph-name="uni0E22" unicode="&#xe22;" horiz-adv-x="519" 
d="M436 92q0 -23 -4.5 -40t-17.5 -28.5t-36 -17.5t-61 -6h-240v161q0 35 18 60.5t46 36.5q-76 24 -76 92v69q0 42 23.5 67t63.5 25q35 0 61 -24t26 -62t-24.5 -61.5t-59.5 -23.5q-23 0 -38 9q0 -31 25 -47.5t63 -16.5h55v-47h-54q-38 0 -57 -22t-19 -57v-111h171
q20 0 33 0.5t18 1.5q32 6 32 53v397h52v-408zM193 425q0 40 -39 40q-41 0 -41 -40t41 -40q39 0 39 40z" />
    <glyph glyph-name="uni0E23" unicode="&#xe23;" horiz-adv-x="446" 
d="M408 480q-35 -43 -92 -43q-30 0 -77 15q-45 15 -70 15q-37 0 -63.5 -14t-40.5 -37q21 0 50 -0.5t61.5 -4.5t64.5 -11.5t57 -21.5t41 -35t16 -52v-206q0 -42 -24 -65.5t-64 -23.5q-35 0 -60.5 22.5t-25.5 60.5q0 39 24 62t59 23q17 0 38 -8v131q0 53 -80 74
q-26 7 -66.5 9.5t-96.5 2.5h-58q11 69 55 105.5t113 36.5q16 0 36 -4t43 -12q24 -7 38.5 -11t22.5 -4q22 0 34 6.5t26 20.5zM306 79q0 40 -41 40q-39 0 -39 -40t39 -40q41 0 41 40z" />
    <glyph glyph-name="uni0E24" unicode="&#xe24;" horiz-adv-x="508" 
d="M430 -181h-52v544q0 26 -11 45.5t-30 32.5t-45 19.5t-56 6.5q-50 0 -84 -14.5t-55 -41.5q19 -8 42 -18t46 -24q-10 -6 -21 -16t-20 -22t-14.5 -25t-5.5 -25v-126q11 5 20 7t17 2q35 0 60 -23.5t25 -61.5q0 -37 -26 -60t-61 -23q-41 0 -64 23.5t-23 65.5v197q0 23 14 44.5
t32 32.5q-23 11 -45.5 18.5t-46.5 14.5q26 57 80 89.5t129 32.5q88 0 141.5 -38t53.5 -114v-543zM200 79q0 40 -40 40t-40 -40t40 -40t40 40z" />
    <glyph glyph-name="uni0E25" unicode="&#xe25;" horiz-adv-x="534" 
d="M447 0h-53l-133 259q-14 26 -30.5 40t-46.5 14q-26 0 -41 -16t-15 -42v-103q19 8 38 8q34 0 59 -23.5t25 -61.5q0 -18 -7 -33t-19 -26.5t-28 -17.5t-33 -6q-41 0 -64 23.5t-23 65.5v183q0 21 8.5 38.5t23 30t34 19.5t41.5 7q85 0 122 -72l89 -173v243q0 51 -40.5 78.5
t-101.5 27.5q-57 0 -98.5 -21.5t-50.5 -66.5h-51q3 30 19 55t43 43t63 28t78 10t77 -11t60.5 -30.5t40 -47.5t14.5 -62v-360zM205 75q0 40 -41 40q-39 0 -39 -40t39 -40q41 0 41 40z" />
    <glyph glyph-name="uni0E26" unicode="&#xe26;" horiz-adv-x="582" 
d="M493 -184h-52v544q0 26 -11 45.5t-30 32.5t-45 19.5t-56 6.5q-50 0 -84 -14.5t-56 -41.5q19 -8 42.5 -18t46.5 -24q-10 -6 -21 -15.5t-20 -21.5t-14.5 -25t-5.5 -26v-196q0 -42 -23 -65.5t-61 -23.5q-34 0 -57.5 22.5t-23.5 60.5t23 61.5t56 23.5q23 0 33 -7v125
q0 23 14.5 44.5t32.5 32.5q-24 11 -46.5 18.5t-45.5 14.5q26 57 80 89.5t129 32.5q88 0 141.5 -38t53.5 -114v-543zM140 76q0 18 -11 29t-27 11q-38 0 -38 -40q0 -18 10 -29t28 -11q16 0 27 11t11 29z" />
    <glyph glyph-name="uni0E27" unicode="&#xe27;" horiz-adv-x="464" 
d="M372 83q0 -42 -23.5 -65.5t-64.5 -23.5q-35 0 -60.5 22.5t-25.5 60.5q0 39 24.5 62t59.5 23q18 0 37 -8v205q0 26 -10 45.5t-27 33t-40 20.5t-50 7q-50 0 -89 -24.5t-50 -76.5h-50q3 33 18 60.5t40 47t58.5 30.5t72.5 11t72 -11t57 -30.5t37.5 -47.5t13.5 -62v-279z
M323 77q0 40 -40 40t-40 -40t40 -40t40 40z" />
    <glyph glyph-name="uni0E28" unicode="&#xe28;" horiz-adv-x="521" 
d="M467 556q0 -33 -20.5 -57t-55.5 -35q55 -47 55 -124v-340h-53v332q0 33 -11 57.5t-30.5 41t-46 24.5t-57.5 8q-34 0 -63 -9.5t-50 -26.5t-33 -40.5t-12 -50.5q0 -58 18 -130q4 -17 5 -49t1 -69q3 36 8 65.5t12 57t16.5 55.5t21.5 61q23 61 84 61q38 0 61.5 -21.5
t23.5 -58.5q0 -35 -25.5 -57t-59.5 -22q-33 0 -56 20q-10 -26 -20 -58t-19 -65t-16.5 -65.5t-11.5 -60.5h-60v76q0 26 -5.5 66t-16.5 96q-7 31 -10 55.5t-3 42.5q0 74 58 123q58 52 152 52q11 0 21.5 -1t18.5 -2q26 -4 39.5 -6t16.5 -2q28 0 46 15t18 41h59zM295 308
q0 39 -39 39q-19 0 -29.5 -10.5t-10.5 -28.5q0 -14 11.5 -26.5t28.5 -12.5q18 0 28.5 11.5t10.5 27.5z" />
    <glyph glyph-name="uni0E29" unicode="&#xe29;" horiz-adv-x="564" 
d="M549 288q-19 -19 -37 -33t-38 -25v-140q0 -29 -8.5 -46.5t-24 -27.5t-36.5 -13t-46 -3h-288v48h63v301q-11 -5 -20 -7t-18 -2q-34 0 -59 23.5t-25 61.5q0 18 7 34t19 27.5t27.5 18t33.5 6.5q41 0 64 -25t23 -67v-371h154q25 0 40.5 1.5t24.5 7t12.5 17t3.5 31.5v100
q-49 -19 -92 -19t-69.5 22t-26.5 57q0 31 22.5 52.5t55.5 21.5q34 0 56.5 -21t22.5 -54l-4 -23q11 4 19.5 7.5t15.5 8.5v243h53v-212q8 8 19.5 17t20.5 18zM137 425q0 40 -39 40q-41 0 -41 -40t41 -40q39 0 39 40zM347 266q0 14 -9.5 24.5t-26.5 10.5q-14 0 -25 -10.5
t-11 -24.5t10.5 -23.5t25.5 -9.5t25.5 9t10.5 24z" />
    <glyph glyph-name="uni0E2A" unicode="&#xe2a;" horiz-adv-x="543" 
d="M478 556q0 -33 -19.5 -56t-54.5 -37q24 -20 35 -45.5t11 -56.5v-361h-52l-134 259q-14 26 -30.5 40t-45.5 14q-26 0 -41 -15.5t-15 -41.5v-104q19 8 37 8q35 0 59.5 -23.5t24.5 -61.5q0 -36 -26 -59.5t-61 -23.5q-40 0 -63.5 23.5t-23.5 66.5v182q0 21 8.5 38.5t23 30
t34 19.5t41.5 7q85 0 122 -72l90 -173v243q0 51 -40.5 78.5t-102.5 27.5q-57 0 -98.5 -21.5t-49.5 -66.5h-52q3 30 19 54.5t42.5 42t62.5 27t79 9.5q12 0 26.5 -1t31.5 -4q17 -2 27 -3t12 -1q26 0 45 17t19 40h59zM208 75q0 40 -40 40t-40 -40t40 -40t40 40z" />
    <glyph glyph-name="uni0E2B" unicode="&#xe2b;" horiz-adv-x="563" 
d="M503 429q0 -50 -43 -72q26 -26 26 -63v-294h-53v294q0 35 -27 51q-37 -25 -72.5 -65.5t-65 -88t-51 -97.5t-30.5 -94h-52v349q-11 -5 -19.5 -7t-17.5 -2q-35 0 -59.5 23.5t-24.5 61.5q0 18 7 34t19 27.5t27.5 18t33.5 6.5q40 0 63.5 -25t23.5 -67v-203q0 -83 -6 -107
q8 29 18 52.5t22 44.5t27 41t34 43q21 26 40.5 45t38.5 33q-29 24 -29 61q0 35 25 58.5t60 23.5t60 -23.5t25 -58.5zM460 431q0 16 -12 27t-30 11q-17 0 -29 -11t-12 -27q0 -18 11 -29.5t30 -11.5q16 0 29 11.5t13 29.5zM139 425q0 40 -40 40t-40 -40t40 -40t40 40z" />
    <glyph glyph-name="uni0E2C" unicode="&#xe2c;" horiz-adv-x="638" 
d="M589 538q-22 -39 -48 -63q11 -16 11 -50v-385q0 -40 -40 -40h-31l-136 308l-133 -308h-31q-40 0 -40 40v309q-11 -5 -20 -7t-17 -2q-35 0 -60 23.5t-25 61.5q0 37 26 61t61 24q41 0 64 -24.5t23 -66.5v-253q0 -33 -1 -59t-5 -40l36 81l98 227h48l101 -227l33 -81v29
t-2 29q-1 10 -1 17v12v270l-1 15q-19 -11 -47.5 -22.5t-61.5 -11.5q-48 0 -80 20.5t-32 55.5q0 17 10 32t26.5 26t38 17.5t44.5 6.5q35 0 65 -11t51 -34q8 7 15 16.5t14 21.5zM476 481q-27 34 -81 34q-28 0 -47.5 -9.5t-19.5 -24.5t17.5 -22t45.5 -7t47.5 8.5t37.5 20.5z
M145 425q0 40 -40 40t-40 -40t40 -40t40 40z" />
    <glyph glyph-name="uni0E2D" unicode="&#xe2d;" horiz-adv-x="546" 
d="M452 92q0 -23 -4.5 -40t-17.5 -28.5t-36 -17.5t-61 -6h-252v253q0 42 23 66.5t64 24.5q17 0 33 -6t28 -17.5t19 -27t7 -34.5q0 -38 -24.5 -61.5t-59.5 -23.5q-9 0 -18 2t-20 7v-135h184q20 0 33 0.5t18 1.5q31 6 31 53v254q0 26 -10.5 45.5t-29.5 33t-44.5 20.5t-54.5 7
q-27 0 -52 -6t-45.5 -18.5t-35 -31.5t-19.5 -45h-51q4 33 20.5 60.5t43 47t62 30.5t77.5 11t77 -11t60.5 -30.5t40 -47.5t14.5 -62v-268zM210 259q0 40 -41 40q-39 0 -39 -40t39 -40q41 0 41 40z" />
    <glyph glyph-name="uni0E2E" unicode="&#xe2e;" horiz-adv-x="538" 
d="M482 493q-8 -17 -21 -31.5t-27 -27.5q8 -12 12.5 -25.5t4.5 -34.5v-282q0 -23 -4.5 -40t-17.5 -28.5t-36 -17.5t-60 -6h-253v236q0 42 23.5 67t63.5 25q35 0 61 -23.5t26 -62.5q0 -38 -24.5 -61t-59.5 -23q-9 0 -17.5 1.5t-19.5 6.5v-118h219q13 0 16 1q31 6 31 54v278v2
l-1 4v2l-3 7.5t-2 4.5q-35 -23 -72 -37t-80 -14q-3 -1 -7 -1h-21q-17 0 -40.5 2t-44.5 9.5t-36 21.5t-15 38q0 27 18 45.5t44 30t54.5 16t49.5 4.5q100 0 157 -45l14 15q7 9 13 16.5t11 16.5zM362 439q-22 16 -53.5 24t-68.5 8q-22 0 -42 -3.5t-35 -9.5t-24 -14.5t-9 -19.5
q0 -15 21.5 -22t56.5 -7h18h3l7 1h3q23 3 39.5 6.5t30.5 8.5t26.5 12t26.5 16zM209 242q0 41 -40 41t-40 -41q0 -39 40 -39t40 39z" />
    <glyph glyph-name="uni0E2F" unicode="&#xe2f;" horiz-adv-x="511" 
d="M421 0h-52v401q-35 -36 -83.5 -57.5t-105.5 -21.5t-93.5 29t-36.5 75q0 33 23.5 56.5t60.5 23.5t60 -22.5t23 -57.5q0 -30 -25 -58q28 0 56.5 10t52.5 28t41.5 42t23.5 52h22q15 0 24 -4t9 -29v-467zM172 426q0 17 -10 27.5t-28 10.5q-39 0 -39 -38q0 -37 39 -37
q38 0 38 37z" />
    <glyph glyph-name="uni0E30" unicode="&#xe30;" horiz-adv-x="440" 
d="M385 500q0 -42 -14.5 -77t-40 -59.5t-60.5 -38.5t-77 -14q-68 0 -109.5 29.5t-41.5 80.5q0 35 24 57.5t59 22.5q16 0 30.5 -6t26 -17t18 -26t6.5 -32q0 -38 -28 -59q32 0 60.5 9t49.5 26t33 43.5t12 60.5h52zM163 420q0 16 -11 27.5t-27 11.5q-17 0 -28 -11.5t-11 -27.5
q0 -17 11 -28t28 -11q16 0 27 11t11 28zM385 188q0 -42 -14.5 -76.5t-40 -59.5t-60.5 -38.5t-77 -13.5q-68 0 -109.5 29t-41.5 81q0 35 24 57.5t59 22.5q16 0 30.5 -6t26 -17t18 -26t6.5 -32q0 -38 -28 -59q32 0 60 9t49 26t33.5 43t12.5 60h52zM163 109q0 16 -11 27.5
t-27 11.5q-17 0 -28 -11.5t-11 -27.5q0 -17 11 -28t28 -11q16 0 27 11t11 28z" />
    <glyph glyph-name="uni0E31" unicode="&#xe31;" 
d="M74 769q0 -42 -17.5 -75.5t-46 -57.5t-65.5 -37t-76 -13q-24 0 -52 5t-51 17t-38.5 32.5t-15.5 50.5q0 33 21 54t56 21q31 0 53.5 -21t22.5 -54q0 -39 -27 -59q11 -2 17 -2h11q31 0 59.5 9.5t51 27t36 43.5t13.5 59h48zM-174 689q0 15 -11 26.5t-26 11.5t-26.5 -11.5
t-11.5 -26.5t11.5 -26t26.5 -11t26 11t11 26z" />
    <glyph glyph-name="uni0E32" unicode="&#xe32;" horiz-adv-x="437" 
d="M346 0h-53v357q0 54 -30 80t-84 26q-48 0 -81.5 -23.5t-45.5 -77.5h-51q8 67 55.5 108t122.5 41t121 -41t46 -110v-360z" />
    <glyph glyph-name="uni0E33" unicode="&#xe33;" horiz-adv-x="433" 
d="M-14 667q0 -36 -24.5 -61t-61.5 -25t-61.5 25t-24.5 61q0 37 24.5 61.5t61.5 24.5t61.5 -24.5t24.5 -61.5zM-57 667q0 19 -12 30.5t-31 11.5t-31 -11.5t-12 -30.5t12 -30.5t31 -11.5t31 11.5t12 30.5zM345 0h-52v356q0 54 -30.5 80t-84.5 26q-48 0 -81.5 -23.5
t-44.5 -77.5h-51q7 68 54.5 108.5t122.5 40.5q38 0 68.5 -10.5t52.5 -30t34 -47.5t12 -62v-360z" />
    <glyph glyph-name="uni0E34" unicode="&#xe34;" 
d="M-67 585q-65 11 -134 15t-150 4q-31 0 -63.5 -0.5t-67.5 -0.5q12 68 63.5 106.5t126.5 38.5q91 0 150 -42t75 -121zM-127 632q-23 37 -68.5 55.5t-94.5 18.5q-41 0 -77.5 -16t-59.5 -48q23 3 49 4t56 1q88 0 195 -15z" />
    <glyph glyph-name="uni0E35" unicode="&#xe35;" 
d="M-66 586q-63 11 -132 15t-150 4q-31 0 -63.5 -0.5t-67.5 -0.5q13 68 64 106.5t127 38.5q53 0 95.5 -14.5t73.5 -43.5v94h53v-199zM-124 633q-22 37 -67.5 55.5t-94.5 18.5q-41 0 -78 -16t-60 -48q23 3 49 4t56 1q88 0 195 -15z" />
    <glyph glyph-name="uni0E36" unicode="&#xe36;" 
d="M-34 719q0 -49 -50 -69q7 -11 12.5 -27.5t8.5 -36.5q-65 11 -133.5 15.5t-149.5 4.5q-31 0 -63.5 -0.5t-67.5 -0.5q13 68 64 106.5t126 38.5q54 0 101 -18q4 28 24.5 44.5t49.5 16.5q33 0 55.5 -21.5t22.5 -52.5zM-78 721q0 31 -31 31t-31 -31t31 -31t31 31zM-122 634
q-22 37 -67 55t-96 18q-40 0 -77 -16t-60 -47q23 3 49 4t56 1q88 0 195 -15z" />
    <glyph glyph-name="uni0E37" unicode="&#xe37;" 
d="M-60 585q-63 11 -132 15t-150 4q-31 0 -63.5 -0.5t-67.5 -0.5q13 68 64 106.5t127 38.5q44 0 80 -10v46h52v-67q9 -5 20 -13q4 -1 17 -14v94h53v-199zM-118 632q-22 37 -67.5 55.5t-94.5 18.5q-41 0 -78 -16t-60 -48q23 3 49 4t56 1q88 0 195 -15z" />
    <glyph glyph-name="uni0E38" unicode="&#xe38;" 
d="M-81 -323h-53v106q-14 -6 -31 -6q-33 0 -54 24.5t-21 56.5q0 37 23 59.5t55 22.5q35 0 58 -24t23 -65v-174zM-129 -142q0 38 -33 38t-33 -38q0 -39 33 -39t33 39z" />
    <glyph glyph-name="uni0E39" unicode="&#xe39;" 
d="M-73 -232q0 -37 -19 -52t-54 -15h-92v82q-15 -6 -31 -6q-29 0 -49 20q-26 23 -26 61q0 37 23 59.5t54 22.5q35 0 58.5 -23.5t23.5 -65.5v-105h32q27 0 27 20v174h53v-172zM-233 -142q0 38 -34 38q-33 0 -33 -38q0 -39 33 -39q34 0 34 39z" />
    <glyph glyph-name="uni0E3A" unicode="&#xe3a;" 
d="M-81 -110q0 -22 -12.5 -34t-31.5 -12t-31.5 12t-12.5 34t12.5 34.5t31.5 12.5t31.5 -12.5t12.5 -34.5z" />
    <glyph glyph-name="uni0E3F" unicode="&#xe3f;" horiz-adv-x="587" 
d="M530 168q0 -47 -17 -79.5t-46 -52t-67.5 -28t-81.5 -8.5h-20v-80h-31v80h-198v589h198v78h31v-78h20q37 0 71 -6.5t60.5 -23t42 -44t15.5 -70.5q0 -49 -27 -85t-76 -47q58 -9 92 -47.5t34 -97.5zM451 432q0 110 -133 110h-20v-210h20q65 0 99 27t34 73zM267 332v210h-143
v-210h143zM473 169q0 114 -155 114h-20v-235h20q31 0 59 5.5t49.5 19.5t34 37t12.5 59zM267 48v235h-143v-235h143z" />
    <glyph glyph-name="uni0E40" unicode="&#xe40;" horiz-adv-x="291" 
d="M261 72q0 -35 -25.5 -57t-58.5 -22q-41 0 -65.5 21.5t-24.5 63.5v422h53v-355q18 9 38 9q34 0 58.5 -22t24.5 -60zM217 72q0 38 -40 38q-18 0 -30 -10t-12 -28q0 -16 12 -27.5t30 -11.5q16 0 28 11.5t12 27.5z" />
    <glyph glyph-name="uni0E41" unicode="&#xe41;" horiz-adv-x="536" 
d="M499 73q0 -35 -25.5 -57t-59.5 -22q-41 0 -65 21.5t-24 63.5v422h52v-355q18 9 38 9q34 0 59 -22t25 -60zM262 73q0 -35 -25.5 -57t-59.5 -22q-40 0 -64.5 21.5t-24.5 63.5v422h53v-355q17 9 38 9q34 0 58.5 -22t24.5 -60zM455 73q0 38 -41 38q-18 0 -30 -10t-12 -28
q0 -16 12 -27.5t30 -11.5q16 0 28.5 11.5t12.5 27.5zM218 73q0 38 -41 38q-17 0 -29 -10t-12 -28q0 -16 12 -27.5t29 -11.5t29 11.5t12 27.5z" />
    <glyph glyph-name="uni0E42" unicode="&#xe42;" horiz-adv-x="347" 
d="M334 804q-22 -18 -45 -30.5t-49 -12.5q-14 0 -36.5 5t-54.5 14q-14 5 -27 7t-24 2q-58 0 -74 -34q37 0 68.5 -8.5t54 -24.5t35.5 -37t13 -47v-493q16 10 38 10q35 0 59 -22.5t24 -61.5q0 -37 -25.5 -58.5t-60.5 -21.5q-41 0 -64.5 22t-23.5 64v553q0 33 -21.5 51.5
t-52.5 27.5t-64.5 11.5t-56.5 2.5q15 53 55 83t89 30q34 0 80 -13q26 -7 41.5 -10.5t23.5 -3.5q38 0 65 27zM272 71q0 18 -11.5 29.5t-29.5 11.5q-17 0 -29 -11.5t-12 -29.5q0 -16 12 -27.5t29 -11.5t29 11.5t12 27.5z" />
    <glyph glyph-name="uni0E43" unicode="&#xe43;" horiz-adv-x="336" 
d="M321 72q0 -38 -25.5 -59.5t-60.5 -21.5q-41 0 -64.5 22.5t-23.5 64.5v518q0 34 26 75q28 38 28 72q0 32 -21.5 52t-62.5 20q-47 0 -65 -21l9 2q33 0 55 -21t22 -54q0 -31 -22 -53t-55 -22q-15 0 -30 6.5t-27 18.5t-19 29t-7 38q0 27 10.5 49.5t29 39t44 26t55.5 9.5
q60 0 98 -31.5t38 -84.5q0 -45 -27 -85q-26 -39 -26 -74v-441q17 9 37 9q35 0 59.5 -22.5t24.5 -60.5zM96 721q0 14 -10 23.5t-25 9.5q-14 0 -23 -9.5t-9 -23.5q0 -35 32 -35q35 0 35 35zM277 72q0 18 -11.5 29.5t-29.5 11.5t-29.5 -11.5t-11.5 -29.5q0 -17 11.5 -28
t29.5 -11q16 0 28.5 11t12.5 28z" />
    <glyph glyph-name="uni0E44" unicode="&#xe44;" horiz-adv-x="338" 
d="M319 72q0 -37 -25.5 -58.5t-60.5 -21.5q-41 0 -64.5 22t-23.5 64v559q0 34 18 61q11 20 37 38q0 11 -13.5 20.5t-28.5 9.5l-89 -68q-36 32 -75 52.5t-88 29.5l51 41q28 -7 60.5 -23t52.5 -38l74 54q21 0 41 -6.5t36 -18.5t25.5 -28t9.5 -34q-24 -16 -41 -36.5t-17 -51.5
v-493q16 10 37 10q35 0 59.5 -22.5t24.5 -61.5zM275 72q0 18 -11.5 29.5t-29.5 11.5t-29.5 -11.5t-11.5 -29.5q0 -16 11.5 -27.5t29.5 -11.5q17 0 29 11.5t12 27.5z" />
    <glyph glyph-name="uni0E45" unicode="&#xe45;" horiz-adv-x="432" 
d="M350 -184h-53v542q0 53 -30 79.5t-84 26.5q-48 0 -81.5 -24t-45.5 -78h-51q8 68 55.5 108.5t122.5 40.5t121 -40.5t46 -109.5v-545z" />
    <glyph glyph-name="uni0E46" unicode="&#xe46;" horiz-adv-x="497" 
d="M415 -179h-53v549q0 76 -48 91l-75 -60l-82 63q-21 -7 -35 -22.5t-21 -33.5q10 6 29 6q31 0 54 -19t23 -54t-23 -53.5t-54 -18.5q-35 0 -57 23q-31 28 -31 77q0 27 9.5 52t26 44.5t40.5 33t52 17.5l67 -53l70 52q108 -24 108 -135v-559zM162 341q0 14 -9.5 24t-23.5 10
t-24.5 -10t-10.5 -24q0 -12 10.5 -22t24.5 -10t23.5 8.5t9.5 23.5z" />
    <glyph glyph-name="uni0E47" unicode="&#xe47;" 
d="M-67 834q-7 -50 -39.5 -76.5t-86.5 -26.5l-85 3q-32 0 -50.5 -14t-18.5 -42q0 -22 12 -32t26 -13l57 61q14 -16 25.5 -27.5t22.5 -19.5q0 28 18.5 46.5t45.5 18.5q29 0 47.5 -18t18.5 -47q0 -28 -22.5 -47.5t-52.5 -19.5q-58 0 -104 52l-42 -45h-16q-33 0 -59 23.5
t-26 65.5q0 44 30 73.5t87 29.5l84 -4q67 0 78 59h50zM-110 647q0 30 -30 30t-30 -30t30 -30t30 30z" />
    <glyph glyph-name="uni0E48" unicode="&#xe48;" 
d="M-67 800h-53v137h53v-137z" />
    <glyph glyph-name="uni0E49" unicode="&#xe49;" 
d="M32 953q-12 -47 -42.5 -78.5t-70.5 -50t-85.5 -26.5t-88.5 -8v30q42 9 59 33q-27 0 -44 17t-17 45q0 26 19.5 44t46.5 18q29 0 49 -16t20 -47q0 -23 -11 -44t-28 -35q27 5 52.5 16.5t46 28t34.5 38t17 45.5zM-160 914q0 30 -31 30t-31 -30t31 -30t31 30z" />
    <glyph glyph-name="uni0E4A" unicode="&#xe4a;" 
d="M72 999q0 -58 -25.5 -112t-72.5 -89l-38 12q8 24 11.5 38t3.5 33q0 45 -34 45q-22 0 -31 -16q-5 -4 -6 -18h-36q-9 34 -46 34q-14 0 -24 -7.5t-13 -18.5l15 3q23 0 38 -14.5t15 -38.5q0 -26 -16 -41t-38 -15q-25 0 -41 16q-24 21 -24 61q0 42 25 68t62 26q24 0 41 -11
q11 -6 24 -23q8 13 24 23t37 10q30 0 48.5 -20t18.5 -49l-2 -27q19 26 32 58t13 73h39zM-202 849q0 25 -23 25q-24 0 -24 -25q0 -26 24 -26q23 0 23 26z" />
    <glyph glyph-name="uni0E4B" unicode="&#xe4b;" 
d="M3 873h-77v-73h-47v73h-79v36h79v74h47v-74h77v-36z" />
    <glyph glyph-name="uni0E4C" unicode="&#xe4c;" 
d="M-3 1002q-3 -27 -16.5 -44t-30 -25.5t-31.5 -11t-21 -1.5q-6 0 -11 0.5t-9 0.5h-12q21 -5 34.5 -21.5t13.5 -39.5q0 -27 -19 -46t-47 -19q-29 0 -51.5 20.5t-22.5 53.5q0 35 21.5 59t58.5 28q18 2 33.5 4t29.5 4q12 4 22 15t10 23h48zM-122 859q0 30 -30 30t-30 -30
q0 -32 30 -32t30 32z" />
    <glyph glyph-name="uni0E4D" unicode="&#xe4d;" 
d="M-45 663q0 -37 -25 -62t-62 -25q-36 0 -61 25t-25 62t25 61.5t61 24.5q37 0 62 -24.5t25 -61.5zM-89 663q0 19 -12 30.5t-31 11.5t-30.5 -11.5t-11.5 -30.5t11.5 -31t30.5 -12t31 12t12 31z" />
    <glyph glyph-name="uni0E4E" unicode="&#xe4e;" horiz-adv-x="524" 
d="M3 947q-8 2 -10 2h-27q-28 0 -53.5 -3.5t-45.5 -11t-32 -18.5t-12 -26q0 -20 20.5 -26.5t53.5 -6.5v-42q-60 0 -109 -17q-51 -14 -45 -46q2 -9 13 -13t25 -4q20 0 35 3t34 14l22 -37q-24 -11 -49.5 -17.5t-44.5 -6.5q-2 1 -7 1h-8q-33 4 -52 20.5t-19 39.5q0 20 9.5 35.5
t24 26.5t32.5 18t35 10q-8 8 -15 21t-7 28q0 23 20.5 47t54.5 36q16 7 35.5 10.5t39 5t37.5 2t32 0.5h13v-45z" />
    <glyph glyph-name="uni0E4F" unicode="&#xe4f;" horiz-adv-x="657" 
d="M581 248q0 -54 -20 -100.5t-55 -81t-81.5 -54t-100.5 -19.5q-53 0 -100 19.5t-81.5 54t-54.5 81t-20 100.5q0 53 20 100t54.5 81.5t81.5 54.5t100 20q54 0 100.5 -20t81.5 -54.5t55 -81t20 -100.5zM544 248q0 45 -17.5 85t-47.5 69.5t-70 46.5t-85 17t-85 -17
t-69.5 -46.5t-46.5 -69.5t-17 -85q0 -46 17 -86t46.5 -69.5t69 -46.5t85.5 -17q45 0 85 17t70 47t47.5 70t17.5 85zM481 248q0 -33 -12 -61.5t-33.5 -49.5t-50 -33t-61.5 -12t-61.5 12t-49.5 33t-33 49.5t-12 61.5t12 61.5t33 49.5t49.5 33t61.5 12q32 0 60.5 -12.5
t50 -33.5t34 -49.5t12.5 -60.5z" />
    <glyph glyph-name="uni0E50" unicode="&#xe50;" horiz-adv-x="501" 
d="M443 189q0 -43 -15 -78t-41.5 -60t-62.5 -39t-78 -14q-43 0 -79 13.5t-62 38.5t-40.5 60.5t-14.5 78.5q0 44 14.5 79.5t40.5 61t62 39.5t79 14q42 0 78 -14.5t62.5 -40t41.5 -61.5t15 -78zM390 189q0 31 -11 58t-30 47t-45.5 31.5t-57.5 11.5t-57.5 -11.5t-45.5 -31.5
t-29.5 -47t-10.5 -58q0 -33 11 -60.5t30.5 -47t45.5 -30.5t56 -11t56 11t45.5 30.5t31 47t11.5 60.5z" />
    <glyph glyph-name="uni0E51" unicode="&#xe51;" horiz-adv-x="505" 
d="M453 183q0 -70 -34.5 -126.5t-92.5 -98.5l-45 25q53 33 86 84t33 111q0 71 -41 114.5t-109 43.5q-32 0 -59 -11t-47 -31.5t-31.5 -48.5t-11.5 -62q0 -63 28.5 -101.5t71.5 -38.5l13 1q-26 8 -40.5 27.5t-14.5 45.5q0 37 25 61t60 24q38 0 63.5 -23t25.5 -64
q0 -26 -11 -47t-29.5 -36t-42.5 -23.5t-51 -8.5q-38 0 -66.5 15.5t-47 41.5t-28 59t-9.5 67q0 44 15 80.5t41.5 63t63.5 41.5t80 15q47 0 85 -14.5t64.5 -40.5t41 -63t14.5 -82zM284 117q0 18 -10 30.5t-29 12.5q-15 0 -27 -12.5t-12 -30.5q0 -17 11.5 -29t27.5 -12
q19 0 29 11.5t10 29.5z" />
    <glyph glyph-name="uni0E52" unicode="&#xe52;" horiz-adv-x="663" 
d="M590 0h-418q-103 0 -103 89v329q0 35 -22.5 62t-63.5 38l41 32q50 -15 73.5 -49t23.5 -76v-312q0 -38 13.5 -51t55.5 -13h347v233q0 29 -17 43.5t-45 14.5q-26 0 -44 -16t-18 -42v-195h-53v195q0 23 -20 40.5t-49 17.5q-31 0 -50 -15.5t-19 -42.5v-48q8 4 15.5 5t16.5 1
q13 0 26.5 -5.5t24 -16t17.5 -25t7 -31.5q0 -35 -23 -57t-55 -22q-35 0 -58 24t-23 62v114q0 49 34 76.5t84 27.5q31 0 57 -10.5t42 -32.5q14 19 40 31t52 12q45 0 78 -26t33 -75v-286zM284 162q0 37 -33 37q-34 0 -34 -37q0 -16 10 -26t24 -10q15 0 24 9.5t9 26.5z" />
    <glyph glyph-name="uni0E53" unicode="&#xe53;" horiz-adv-x="580" 
d="M520 0h-53v251q0 35 -18 59.5t-49 24.5q-19 0 -33.5 -7.5t-24 -19.5t-14.5 -27.5t-5 -30.5v-250h-53v251q0 35 -22 59.5t-61 24.5q-36 0 -58 -21.5t-22 -54.5v-117q9 5 18 7t18 2q33 0 57 -21t24 -58q0 -35 -24.5 -55.5t-59.5 -20.5q-40 0 -62.5 22t-22.5 63v178
q0 24 10 46t27 39t41.5 27t52.5 10q79 0 111 -53q33 53 102 53q57 0 89 -34t32 -90v-257zM180 72q0 36 -38 36q-39 0 -39 -36q0 -37 39 -37q38 0 38 37z" />
    <glyph glyph-name="uni0E54" unicode="&#xe54;" horiz-adv-x="532" 
d="M498 542q0 -92 -59.5 -144.5t-164.5 -52.5q-92 0 -141 -35.5t-49 -118.5q0 -68 36 -106.5t94 -38.5q26 0 48 3t45 11q-27 24 -42.5 51.5t-15.5 65.5q0 39 24 63.5t60 24.5q35 0 56 -21.5t21 -56.5q0 -29 -20 -51.5t-57 -22.5h-11q20 -27 82 -44q61 -12 86 -36l-33 -33
q-21 11 -42 18t-50 7q-7 0 -85 -18q-20 -3 -39 -5t-39 -2q-37 0 -68.5 13t-54 37.5t-35.5 59.5t-13 78q0 56 17.5 94.5t48.5 62.5t74 34.5t94 10.5q42 0 74 8t56 24q51 38 51 104q0 3 -0.5 5t-0.5 4v7h53zM366 187q0 37 -34 37q-33 0 -33 -37q0 -14 8.5 -23.5t24.5 -9.5
q14 0 24 9.5t10 23.5z" />
    <glyph glyph-name="uni0E55" unicode="&#xe55;" horiz-adv-x="535" 
d="M505 543q0 -92 -59.5 -144.5t-164.5 -52.5q-92 0 -141 -35.5t-49 -118.5q0 -68 36 -106.5t94 -38.5q26 0 48 3t45 11q-27 24 -42.5 51.5t-15.5 65.5q0 39 24 63.5t60 24.5q35 0 56 -21.5t21 -56.5q0 -29 -20 -51.5t-57 -22.5h-11q20 -27 82 -44q61 -12 86 -36l-33 -33
q-21 11 -42 18t-50 7q-7 0 -85 -18q-20 -3 -39 -5t-39 -2q-37 0 -68.5 13t-54 37.5t-35.5 59.5t-13 78q0 85 38 131.5t107 61.5q-8 8 -14 22.5t-6 32.5q0 39 27 64t69 25t69.5 -25t27.5 -64q0 -20 -11 -39q107 28 107 145h53zM307 437q0 20 -14 32.5t-34 12.5
q-21 0 -34 -11.5t-13 -33.5q0 -44 47 -44q20 0 34 11t14 33zM373 188q0 37 -34 37q-33 0 -33 -37q0 -14 8.5 -23.5t24.5 -9.5q14 0 24 9.5t10 23.5z" />
    <glyph glyph-name="uni0E56" unicode="&#xe56;" horiz-adv-x="516" 
d="M479 197q0 -42 -15.5 -78t-42 -62.5t-63 -41t-78.5 -14.5q-37 0 -69.5 8t-56 23.5t-37 37.5t-13.5 50q0 33 23.5 55t57.5 22t57.5 -22t23.5 -55q0 -43 -39 -67q16 -5 28 -5.5t24 -0.5q31 0 58 11.5t47 32t31.5 47.5t11.5 58q0 32 -11 58.5t-31 45.5t-47 29.5t-59 10.5
q-38 0 -75 -14.5t-56 -40.5l-44 4q0 67 -31.5 129.5t-82.5 104.5l44 27q46 -38 76 -91.5t38 -112.5q26 19 58 30.5t74 11.5q44 0 80.5 -13t62.5 -38t41 -60.5t15 -79.5zM223 120q0 15 -11 25.5t-27 10.5q-15 0 -26 -10t-11 -26q0 -15 10.5 -25.5t26.5 -10.5q15 0 26.5 9.5
t11.5 26.5z" />
    <glyph glyph-name="uni0E57" unicode="&#xe57;" horiz-adv-x="574" 
d="M638 341q0 -104 -32.5 -186.5t-104.5 -148.5h-47v255q0 36 -18 60t-49 24q-19 0 -34 -7.5t-24.5 -20t-14.5 -28t-5 -30.5v-253h-52v255q0 35 -22.5 59.5t-60.5 24.5t-59 -22t-21 -55v-117q20 7 35 7q34 0 57.5 -21t23.5 -58t-24 -57.5t-59 -20.5q-86 0 -86 83v188
q0 25 10 46.5t27.5 38t42 26t52.5 9.5q79 0 110 -54q16 26 42 40t61 14q57 0 88.5 -34t31.5 -91v-186q19 26 34.5 58t26 65.5t16 67.5t5.5 64q0 57 -9 107.5t-35 102.5h53q20 -39 30.5 -91.5t10.5 -113.5zM166 79q0 17 -10 27.5t-28 10.5q-39 0 -39 -38q0 -37 39 -37
q38 0 38 37z" />
    <glyph glyph-name="uni0E58" unicode="&#xe58;" horiz-adv-x="532" 
d="M528 543q0 -92 -59.5 -144.5t-164.5 -52.5q-42 0 -76.5 -6.5t-60 -23.5t-39.5 -47t-14 -77q0 -65 19.5 -104.5t42.5 -39.5q12 0 27.5 13.5t30.5 31.5t28 36.5t20 28.5q8 -16 19 -35.5t24.5 -36.5t31 -28t38.5 -11q26 0 40 30l-17 -1q-34 0 -55 23t-21 51q0 32 22 53.5
t59 21.5q35 0 58 -22.5t23 -63.5q0 -22 -7 -46.5t-20.5 -45t-33 -33.5t-45.5 -13q-39 0 -70 21.5t-51 53.5q-30 -39 -58 -61q-25 -14 -44 -14q-23 0 -43.5 13t-36.5 37.5t-25 59.5t-9 78q0 57 17 96t48 62.5t74 33.5t95 10q42 0 74 8t56 24q51 38 51 104q0 3 -0.5 5t-0.5 4
v7h53zM454 151q0 15 -9.5 25.5t-24.5 10.5t-24.5 -10.5t-9.5 -25.5t9.5 -26t24.5 -11t24.5 11t9.5 26z" />
    <glyph glyph-name="uni0E59" unicode="&#xe59;" horiz-adv-x="572" 
d="M634 543q0 -63 -29 -139q-31 -82 -67 -82q-32 0 -56 25q-25 26 -44 26q-44 0 -44 -75q0 -29 10.5 -70t29 -80.5t44.5 -71.5t56 -44l-42 -31q-28 10 -51.5 39.5t-42.5 66t-32.5 74t-22.5 63.5q-15 46 -47 71t-78 25q-52 0 -87 -38.5t-35 -102.5q0 -36 8.5 -64.5t23.5 -48
t35 -30t42 -10.5q30 0 46 21l-16 -1q-35 0 -55.5 23t-20.5 50q0 35 21.5 56.5t58.5 21.5q35 0 58 -24.5t23 -62.5q0 -29 -9 -52.5t-25 -40.5t-37.5 -26.5t-46.5 -9.5q-42 0 -72 17t-49.5 44.5t-28.5 63.5t-9 73q0 44 13 79t36.5 60t55.5 38.5t70 13.5q45 0 75.5 -14.5
t56.5 -47.5q4 37 26.5 66t60.5 29q33 0 58 -26q28 -25 35 -25q18 0 34 55q9 27 13 55.5t4 60.5h53zM270 141q0 15 -9 25.5t-24 10.5q-16 0 -25 -10.5t-9 -25.5q0 -34 34 -34q33 0 33 34z" />
    <glyph glyph-name="uni0E5A" unicode="&#xe5a;" horiz-adv-x="579" 
d="M410 1h-53v401q-79 -79 -189 -79q-57 0 -93.5 29t-36.5 75q0 33 24 56.5t60 23.5q35 0 59.5 -22.5t24.5 -57.5q0 -30 -25 -58q28 0 56.5 10t52.5 28t41.5 42t23.5 52h22q15 0 24 -5t9 -28v-467zM525 1h-53v500h53v-500zM161 427q0 16 -10.5 27t-28.5 11q-39 0 -39 -38
q0 -17 9.5 -25t29.5 -12q39 0 39 37z" />
    <glyph glyph-name="uni0E5B" unicode="&#xe5b;" horiz-adv-x="927" 
d="M848 219q0 -7 -8 -9.5t-19 -4.5l-68 -7q-5 -12 -7 -18t-6 -12q-3 -6 -13 -6q-8 0 -20 19l-19 37q-11 -43 -17 -57t-17 -14q-5 0 -11 7.5t-12.5 19.5t-13 26t-12.5 27q-4 -23 -7 -38.5t-6 -21.5q-9 -32 -24 -32q-11 0 -25 36q-11 29 -17.5 44.5t-8.5 20.5
q-3 -22 -7.5 -43.5t-11 -38t-14.5 -26.5t-16 -10q-16 0 -22 28t-10 47.5t-14 43.5q-10 -55 -27.5 -97t-44.5 -71q-62 -68 -138 -68q-36 0 -65.5 14.5t-51 41.5t-33 65t-11.5 85q0 33 8 70t25.5 67.5t45.5 51t68 20.5q27 0 50 -11.5t39.5 -31.5t26 -47.5t9.5 -59.5
q0 -51 -21 -82.5t-56 -31.5q-29 0 -49 22.5t-20 55.5q0 15 5.5 28.5t14.5 24.5t21.5 17.5t26.5 6.5l23 -4q-17 68 -68 68q-21 0 -40 -12t-32.5 -34.5t-21.5 -53.5t-8 -69q0 -72 34 -115t88 -43q30 0 57 16t49 45.5t37.5 71.5t22.5 94q4 26 9.5 35.5t17.5 9.5q8 0 16.5 -9.5
t16.5 -26t16 -38t14 -46.5q3 19 5.5 36.5t5.5 35.5q6 36 21 36q13 0 30.5 -28t29.5 -70q4 30 10.5 52.5t14.5 22.5q28 0 61 -83q11 44 11 43q9 22 21 22q11 0 21 -16q4 -5 7.5 -13t11.5 -21q7 28 28 28l68 -9q26 -1 26 -13zM275 230q0 39 -30 39q-12 0 -21 -11.5t-9 -27.5
q0 -17 8.5 -28t21.5 -11q12 0 21 11t9 28z" />
    <glyph glyph-name="endash" unicode="&#x2013;" horiz-adv-x="460" 
d="M419 228h-387v44h387v-44z" />
    <glyph glyph-name="emdash" unicode="&#x2014;" horiz-adv-x="965" 
d="M898 229h-851v44h851v-44z" />
    <glyph glyph-name="quoteleft" unicode="&#x2018;" horiz-adv-x="159" 
d="M130 477q0 -24 -15 -39t-37 -15t-36.5 17t-14.5 44q0 87 64 134l33 -21q-23 -15 -36.5 -34t-13.5 -34l4 2q22 0 37 -14t15 -40z" />
    <glyph glyph-name="quoteright" unicode="&#x2019;" horiz-adv-x="154" 
d="M127 557q0 -86 -64 -133l-33 21q23 15 36.5 34t13.5 34l-5 -3q-21 0 -36 14.5t-15 40.5q0 24 15 39t36 15q23 0 37.5 -17t14.5 -45z" />
    <glyph glyph-name="quotesinglbase" unicode="&#x201a;" horiz-adv-x="143" 
d="M118 41q0 -37 -15 -67.5t-44 -51.5l-28 18q18 13 31.5 30.5t13.5 31.5l-5 -2q-20 0 -33.5 12.5t-13.5 36.5q0 20 13.5 34t33.5 14t33.5 -14.5t13.5 -41.5z" />
    <glyph glyph-name="quotedblbase" unicode="&#x201e;" horiz-adv-x="263" 
d="M119 41q0 -37 -15 -67.5t-44 -51.5l-28 18q18 13 31.5 30.5t13.5 31.5l-5 -2q-20 0 -33.5 12.5t-13.5 36.5q0 20 13.5 34t33.5 14t33.5 -14.5t13.5 -41.5zM234 41q0 -37 -15 -67.5t-44 -51.5l-28 18q18 13 31.5 30.5t13.5 31.5l-5 -2q-20 0 -33.5 12.5t-13.5 36.5
q0 20 13.5 34t33.5 14t33.5 -14.5t13.5 -41.5z" />
    <glyph glyph-name="dagger" unicode="&#x2020;" horiz-adv-x="310" 
d="M132 500v210h45v-210h111v-42h-111v-558h-45v558h-111v42h111z" />
    <glyph glyph-name="daggerdbl" unicode="&#x2021;" horiz-adv-x="310" 
d="M132 152v306h-111v42h111v210h45v-210h111v-42h-111v-306h111v-42h-111v-210h-45v210h-111v42h111z" />
    <glyph glyph-name="bullet" unicode="&#x2022;" horiz-adv-x="196" 
d="M98 224q-31 0 -51.5 20.5t-20.5 51.5t20.5 51.5t51.5 20.5t51.5 -20.5t20.5 -51.5t-20.5 -51.5t-51.5 -20.5z" />
    <glyph glyph-name="ellipsis" unicode="&#x2026;" horiz-adv-x="588" 
d="M54 37q0 18 13 31t31 13t31 -13t13 -31t-13 -31t-31 -13t-31 13t-13 31zM250 37q0 18 13 31t31 13t31 -13t13 -31t-13 -31t-31 -13t-31 13t-13 31zM446 37q0 18 13 31t31 13t31 -13t13 -31t-13 -31t-31 -13t-31 13t-13 31z" />
    <glyph glyph-name="perthousand" unicode="&#x2030;" horiz-adv-x="1025" 
d="M60 583q0 28 10.5 52.5t28.5 42.5t42.5 28.5t52.5 10.5t52.5 -10.5t42.5 -28.5t28.5 -42.5t10.5 -52.5t-10.5 -52.5t-28.5 -42.5t-42.5 -28.5t-52.5 -10.5t-52.5 10.5t-42.5 28.5t-28.5 42.5t-10.5 52.5zM105 0h-53l563 710h53zM106 583q0 -37 25.5 -62.5t62.5 -25.5
t62.5 25.5t25.5 62.5t-25.5 62.5t-62.5 25.5t-62.5 -25.5t-25.5 -62.5zM394 127q0 28 10.5 52.5t28.5 42.5t42.5 28.5t52.5 10.5t52.5 -10.5t42.5 -28.5t28.5 -42.5t10.5 -52.5t-10.5 -52.5t-28.5 -42.5t-42.5 -28.5t-52.5 -10.5t-52.5 10.5t-42.5 28.5t-28.5 42.5
t-10.5 52.5zM716 127q0 28 10.5 52.5t28.5 42.5t42.5 28.5t52.5 10.5t52.5 -10.5t42.5 -28.5t28.5 -42.5t10.5 -52.5t-10.5 -52.5t-28.5 -42.5t-42.5 -28.5t-52.5 -10.5t-52.5 10.5t-42.5 28.5t-28.5 42.5t-10.5 52.5zM440 127q0 -37 25.5 -62.5t62.5 -25.5t62.5 25.5
t25.5 62.5t-25.5 62.5t-62.5 25.5t-62.5 -25.5t-25.5 -62.5zM762 127q0 -37 25.5 -62.5t62.5 -25.5t62.5 25.5t25.5 62.5t-25.5 62.5t-62.5 25.5t-62.5 -25.5t-25.5 -62.5z" />
    <glyph glyph-name="guilsinglleft" unicode="&#x2039;" horiz-adv-x="400" 
d="M351 382h-1q10 5 17.5 2t11 -9.5t1.5 -14t-11 -12.5l-290 -155q56 -30 99 -53t77.5 -41.5t62 -33t51.5 -27.5q8 -3 11 -9.5t1.5 -13t-6.5 -11t-12 -4.5q-6 0 -12 3l-308 162q-7 5 -11.5 12t-4.5 16q0 18 17 28z" />
    <glyph glyph-name="guilsinglright" unicode="&#x203a;" horiz-adv-x="411" 
d="M369 220q17 -10 17 -28q0 -9 -4.5 -16t-11.5 -12l-308 -162q-6 -3 -12 -3q-7 0 -12 4.5t-6.5 11t1.5 13t11 9.5q24 13 51.5 27.5t62 33t78 41.5t98.5 53l-290 155q-9 5 -11 12.5t1.5 14t11 9.5t17.5 -2h-1z" />
    <glyph glyph-name="Euro" unicode="&#x20ac;" horiz-adv-x="506" 
d="M40 245q-7 0 -12 4.5t-5 11.5t5 11.5t12 4.5h50v8l-1 18v8v22t1 22h-50q-7 0 -12 4.5t-5 11.5t5 11.5t12 4.5h53q4 43 15 84t33 72.5t57.5 50.5t89.5 19q37 0 67.5 -12.5t52.5 -33.5t36 -49t18 -59q-1 -11 -7.5 -21t-17.5 -12v1q-11 -1 -19.5 6t-11.5 18q-3 23 -11.5 43
t-23.5 36t-36.5 25t-51.5 9q-33 0 -56 -16t-38 -41t-23 -56.5t-11 -63.5h143q6 0 10.5 -4.5t4.5 -11.5t-4.5 -11.5t-10.5 -4.5h-146q-1 -12 -1 -25.5v-24.5v-28h147q6 0 10.5 -4.5t4.5 -11.5t-4.5 -11.5t-10.5 -4.5h-146q2 -34 8 -69t20.5 -63t39 -45.5t63.5 -17.5
q32 0 55 12.5t37.5 33.5t22 48t8.5 56q2 11 10 19.5t19 7.5q13 -1 20.5 -10t7.5 -21q-3 -38 -14.5 -73.5t-32.5 -62.5t-53 -43.5t-75 -16.5q-60 0 -97 21t-58.5 55.5t-30.5 78.5t-11 90h-51z" />
    <glyph glyph-name="uni2126" unicode="&#x2126;" horiz-adv-x="602" 
d="M301 675q-55 0 -96 -18t-68 -50.5t-40.5 -77.5t-13.5 -99t12.5 -95.5t34 -71t50 -47.5t61.5 -24v-192h-162v43h117v116q-77 26 -117.5 94.5t-40.5 176.5q0 140 68.5 213.5t194.5 73.5t194.5 -73.5t68.5 -213.5q0 -108 -40.5 -176.5t-117.5 -94.5v-116h117v-43h-162v192
q33 6 61.5 24t50 47.5t34 71t12.5 95.5t-13.5 99t-40.5 77.5t-68 50.5t-96 18z" />
    <glyph glyph-name="uni2206" unicode="&#x2206;" horiz-adv-x="600" 
d="M19 0l281 772l281 -772h-562zM300 658l-224 -616h447z" />
    <glyph glyph-name="product" unicode="&#x220f;" horiz-adv-x="545" 
d="M29 668v42h487v-42h-78v-668h-45v668h-241v-668h-45v668h-78z" />
    <glyph glyph-name="summation" unicode="&#x2211;" horiz-adv-x="466" 
d="M35 668v42h391v-42h-329l248 -292v-42l-248 -292h329v-42h-391v42l265 313z" />
    <glyph glyph-name="minus" unicode="&#x2212;" horiz-adv-x="419" 
d="M37 228v42h345v-42h-345z" />
    <glyph glyph-name="uni2215" unicode="&#x2215;" horiz-adv-x="703" 
d="M662 710l-571 -710h-47l571 710h47z" />
    <glyph glyph-name="radical" unicode="&#x221a;" horiz-adv-x="482" 
d="M21 300h105l96 -228l197 661h49l-219 -733h-46l-108 257h-74v43z" />
    <glyph glyph-name="infinity" unicode="&#x221e;" horiz-adv-x="607" 
d="M148 287q-31 0 -53 10t-36.5 27t-21 38.5t-6.5 43.5t6.5 43.5t21 38t36.5 27t53 10.5q38 0 81 -15.5t82 -58.5q29 30 64 52t85 22q31 0 53 -10t36.5 -27t21 -38t6.5 -44q0 -22 -6.5 -43.5t-21 -38t-36.5 -27t-53 -10.5q-38 0 -82.5 16t-85.5 62q-29 -32 -63 -55t-81 -23z
M459 483q-21 0 -39.5 -7t-35 -19t-32 -27.5t-30.5 -32.5q38 -44 71.5 -56t65.5 -12q20 0 34 6.5t22.5 17.5t12.5 25t4 28q0 29 -16.5 53t-56.5 24zM149 483q-20 0 -34 -6.5t-22.5 -17.5t-12.5 -25t-4 -28q0 -29 16.5 -53t56.5 -24q20 0 37.5 7.5t33.5 20t31.5 29t30.5 33.5
q-37 41 -69 52.5t-64 11.5z" />
    <glyph glyph-name="integral" unicode="&#x222b;" horiz-adv-x="365" 
d="M137 -88q-6 -52 -33 -85.5t-76 -33.5q-33 0 -67 15l6 43q16 -8 29.5 -12t28.5 -4q29 0 45.5 19.5t21.5 62.5l84 705q6 50 34.5 84t83.5 34q14 0 29 -2.5t32 -8.5l-6 -41q-29 10 -54 10q-35 0 -52.5 -20.5t-23.5 -71.5z" />
    <glyph glyph-name="approxequal" unicode="&#x2248;" horiz-adv-x="419" 
d="M298 307q37 0 37 50v6h44v-7q0 -43 -19.5 -67t-61.5 -24q-26 0 -50 9.5t-46 20.5t-42.5 20.5t-39.5 9.5q-37 0 -37 -50v-6h-44v7q0 43 19.5 67t61.5 24q26 0 50 -9.5t46.5 -20.5t42.5 -20.5t39 -9.5zM298 173q37 0 37 50v6h44v-7q0 -43 -19.5 -67t-61.5 -24
q-26 0 -50 9.5t-46 20.5t-42.5 20.5t-39.5 9.5q-37 0 -37 -50v-6h-44v7q0 43 19.5 67t61.5 24q26 0 50 -9.5t46.5 -20.5t42.5 -20.5t39 -9.5z" />
    <glyph glyph-name="notequal" unicode="&#x2260;" horiz-adv-x="419" 
d="M171 212l32 74h-166v42h183l48 112h44l-48 -112h118v-42h-135l-32 -74h167v-42h-185l-46 -110h-44l46 110h-116v42h134z" />
    <glyph glyph-name="lessequal" unicode="&#x2264;" horiz-adv-x="419" 
d="M357 502q9 3 16.5 -0.5t10.5 -9.5t1.5 -13.5t-10.5 -11.5l-289 -154q70 -39 144 -78.5t145 -77.5q9 -5 10.5 -12.5t-2 -13.5t-10.5 -9.5t-16 0.5l-307 162q-7 5 -11.5 12t-4.5 15q0 19 16 29zM57 1q-10 0 -16.5 6.5t-6.5 17.5q0 10 6.5 17t16.5 7h307q10 0 16.5 -7
t6.5 -17q0 -11 -6.5 -17.5t-16.5 -6.5h-307z" />
    <glyph glyph-name="greaterequal" unicode="&#x2265;" horiz-adv-x="419" 
d="M373 340q16 -10 16 -29q0 -8 -4.5 -15t-11.5 -12l-307 -162q-9 -4 -16 -0.5t-10.5 9.5t-2 13.5t10.5 12.5q71 38 145 77.5t144 78.5l-289 154q-9 4 -10.5 11.5t1.5 13.5t10.5 9.5t16.5 0.5zM59 1q-10 0 -16.5 6.5t-6.5 17.5q0 10 6.5 17t16.5 7h307q10 0 16.5 -7t6.5 -17
q0 -11 -6.5 -17.5t-16.5 -6.5h-307z" />
    <glyph glyph-name="lozenge" unicode="&#x25ca;" horiz-adv-x="362" 
d="M10 370l171 402l171 -402l-171 -402zM310 370l-129 306l-130 -306l130 -305z" />
    <glyph glyph-name="uniF700" unicode="&#xf700;" horiz-adv-x="495" 
d="M444 474q-18 -21 -38 -31.5t-51 -10.5q-35 0 -85 15q-49 15 -75 15q-42 0 -69.5 -13.5t-43.5 -36.5q37 0 77.5 -3t90.5 -10q79 -12 117 -37.5t38 -75.5q0 -14 -13 -54.5t-41 -109.5q-26 -62 -26 -122h-67l-55 191q-24 -21 -55 -21q-33 0 -58 22t-25 60q0 37 25 60.5
t58 23.5q39 0 60.5 -21.5t32.5 -59.5l47 -176q2 11 13 43t32 87q19 47 19 72q0 49 -87 68q-23 7 -57 11.5t-70.5 7t-71 3.5t-59.5 1q14 65 60.5 101.5t121.5 36.5q35 0 91 -17q27 -7 44 -11t22 -4q18 0 33 8.5t26 19.5zM187 252q0 42 -39 42q-38 0 -38 -42q0 -39 38 -39
q17 0 28 11.5t11 27.5z" />
    <glyph glyph-name="uniF701" unicode="&#xf701;" 
d="M-165 585q-65 11 -134 15t-150 4q-31 0 -63.5 -0.5t-67.5 -0.5q12 68 63.5 106.5t126.5 38.5q91 0 150 -42t75 -121zM-225 632q-23 37 -68.5 55.5t-94.5 18.5q-41 0 -77.5 -16t-59.5 -48q23 3 49 4t56 1q88 0 195 -15z" />
    <glyph glyph-name="uniF702" unicode="&#xf702;" 
d="M-153 586q-63 11 -132 15t-150 4q-31 0 -63.5 -0.5t-67.5 -0.5q13 68 64 106.5t127 38.5q53 0 95.5 -14.5t73.5 -43.5v94h53v-199zM-211 633q-22 37 -67.5 55.5t-94.5 18.5q-41 0 -78 -16t-60 -48q23 3 49 4t56 1q88 0 195 -15z" />
    <glyph glyph-name="uniF703" unicode="&#xf703;" 
d="M-144 719q0 -49 -50 -69q7 -11 12.5 -27.5t8.5 -36.5q-65 11 -133.5 15.5t-149.5 4.5q-31 0 -63.5 -0.5t-67.5 -0.5q13 68 64 106.5t126 38.5q54 0 101 -18q4 28 24.5 44.5t49.5 16.5q33 0 55.5 -21.5t22.5 -52.5zM-188 721q0 31 -31 31t-31 -31t31 -31t31 31zM-232 634
q-22 37 -67 55t-96 18q-40 0 -77 -16t-60 -47q23 3 49 4t56 1q88 0 195 -15z" />
    <glyph glyph-name="uniF704" unicode="&#xf704;" 
d="M-169 585q-63 11 -132 15t-150 4q-31 0 -63.5 -0.5t-67.5 -0.5q13 68 64 106.5t127 38.5q44 0 80 -10v46h52v-67q9 -5 20 -13q4 -1 17 -14v94h53v-199zM-227 632q-22 37 -67.5 55.5t-94.5 18.5q-41 0 -78 -16t-60 -48q23 3 49 4t56 1q88 0 195 -15z" />
    <glyph glyph-name="uniF705" unicode="&#xf705;" 
d="M-153 583h-53v137h53v-137z" />
    <glyph glyph-name="uniF706" unicode="&#xf706;" 
d="M-103 750q-12 -47 -42.5 -78.5t-70.5 -50t-85.5 -26.5t-88.5 -8v30q42 9 59 33q-27 0 -44 17t-17 45q0 26 19.5 44t46.5 18q29 0 49 -16t20 -47q0 -23 -11 -44t-28 -35q27 5 52.5 16.5t46 28t34.5 38t17 45.5zM-295 711q0 30 -31 30t-31 -30t31 -30t31 30z" />
    <glyph glyph-name="uniF707" unicode="&#xf707;" 
d="M-102 778q0 -58 -25.5 -112t-72.5 -89l-38 12q8 24 11.5 38t3.5 33q0 45 -34 45q-22 0 -31 -16q-5 -4 -6 -18h-36q-9 34 -46 34q-14 0 -24 -7.5t-13 -18.5l15 3q23 0 38 -14.5t15 -38.5q0 -26 -16 -41t-38 -15q-25 0 -41 16q-24 21 -24 61q0 42 25 68t62 26q24 0 41 -11
q11 -6 24 -23q8 13 24 23t37 10q30 0 48.5 -20t18.5 -49l-2 -27q19 26 32 58t13 73h39zM-376 628q0 25 -23 25q-24 0 -24 -25q0 -26 24 -26q23 0 23 26z" />
    <glyph glyph-name="uniF708" unicode="&#xf708;" 
d="M-106 635h-77v-73h-47v73h-79v36h79v74h47v-74h77v-36z" />
    <glyph glyph-name="uniF709" unicode="&#xf709;" 
d="M-94 816q-3 -27 -16.5 -44t-30 -25.5t-31.5 -11t-21 -1.5q-6 0 -11 0.5t-9 0.5h-12q21 -5 34.5 -21.5t13.5 -39.5q0 -27 -19 -46t-47 -19q-29 0 -51.5 20.5t-22.5 53.5q0 35 21.5 59t58.5 28q18 2 33.5 4t29.5 4q12 4 22 15t10 23h48zM-213 673q0 30 -30 30t-30 -30
q0 -32 30 -32t30 32z" />
    <glyph glyph-name="uniF70A" unicode="&#xf70a;" 
d="M-58 583h-53v137h53v-137z" />
    <glyph glyph-name="uniF70B" unicode="&#xf70b;" 
d="M3 750q-12 -47 -42.5 -78.5t-70.5 -50t-85.5 -26.5t-88.5 -8v30q42 9 59 33q-27 0 -44 17t-17 45q0 26 19.5 44t46.5 18q29 0 49 -16t20 -47q0 -23 -11 -44t-28 -35q27 5 52.5 16.5t46 28t34.5 38t17 45.5zM-189 711q0 30 -31 30t-31 -30t31 -30t31 30z" />
    <glyph glyph-name="uniF70C" unicode="&#xf70c;" 
d="M-32 778q0 -58 -25.5 -112t-72.5 -89l-38 12q8 24 11.5 38t3.5 33q0 45 -34 45q-22 0 -31 -16q-5 -4 -6 -18h-36q-9 34 -46 34q-14 0 -24 -7.5t-13 -18.5l15 3q23 0 38 -14.5t15 -38.5q0 -26 -16 -41t-38 -15q-25 0 -41 16q-24 21 -24 61q0 42 25 68t62 26q24 0 41 -11
q11 -6 24 -23q8 13 24 23t37 10q30 0 48.5 -20t18.5 -49l-2 -27q19 26 32 58t13 73h39zM-306 628q0 25 -23 25q-24 0 -24 -25q0 -26 24 -26q23 0 23 26z" />
    <glyph glyph-name="uniF70D" unicode="&#xf70d;" 
d="M-36 635h-77v-73h-47v73h-79v36h79v74h47v-74h77v-36z" />
    <glyph glyph-name="uniF70E" unicode="&#xf70e;" 
d="M-25 816q-3 -27 -16.5 -44t-30 -25.5t-31.5 -11t-21 -1.5q-6 0 -11 0.5t-9 0.5h-12q21 -5 34.5 -21.5t13.5 -39.5q0 -27 -19 -46t-47 -19q-29 0 -51.5 20.5t-22.5 53.5q0 35 21.5 59t58.5 28q18 2 33.5 4t29.5 4q12 4 22 15t10 23h48zM-144 673q0 30 -30 30t-30 -30
q0 -32 30 -32t30 32z" />
    <glyph glyph-name="uniF70F" unicode="&#xf70f;" horiz-adv-x="727" 
d="M669 91q0 -53 -30 -73q-24 -18 -85 -18h-230v49h63v310q0 53 -40.5 78.5t-100.5 25.5q-50 0 -84 -14.5t-56 -42.5q19 -7 42 -17t46 -24q-10 -7 -21 -17t-20 -21.5t-14.5 -24.5t-5.5 -26v-125q11 5 20 7t18 2q34 0 59 -23.5t25 -61.5q0 -37 -26 -60t-61 -23
q-41 0 -64 23.5t-23 65.5v197q0 23 14 44.5t32 32.5q-23 11 -45.5 18t-45.5 15q26 57 79.5 89.5t128.5 32.5q89 0 142.5 -38t53.5 -114v-309h131q13 0 16 1q30 6 30 55v395h52v-409zM210 75q0 40 -41 40q-39 0 -39 -40t39 -40q41 0 41 40z" />
    <glyph glyph-name="uniF710" unicode="&#xf710;" 
d="M-56 769q0 -42 -17.5 -75.5t-46 -57.5t-65.5 -37t-76 -13q-24 0 -52 5t-51 17t-38.5 32.5t-15.5 50.5q0 33 21 54t56 21q31 0 53.5 -21t22.5 -54q0 -39 -27 -59q11 -2 17 -2h11q31 0 59.5 9.5t51 27t36 43.5t13.5 59h48zM-304 689q0 15 -11 26.5t-26 11.5t-26.5 -11.5
t-11.5 -26.5t11.5 -26t26.5 -11t26 11t11 26z" />
    <glyph glyph-name="uniF711" unicode="&#xf711;" 
d="M-156 667q0 -36 -24.5 -61t-61.5 -25t-61.5 25t-24.5 61q0 37 24.5 61.5t61.5 24.5t61.5 -24.5t24.5 -61.5zM-199 667q0 19 -12 30.5t-31 11.5t-31 -11.5t-12 -30.5t12 -30.5t31 -11.5t31 11.5t12 30.5z" />
    <glyph glyph-name="uniF712" unicode="&#xf712;" 
d="M-167 834q-7 -50 -39.5 -76.5t-86.5 -26.5l-85 3q-32 0 -50.5 -14t-18.5 -42q0 -22 12 -32t26 -13l57 61q14 -16 25.5 -27.5t22.5 -19.5q0 28 18.5 46.5t45.5 18.5q29 0 47.5 -18t18.5 -47q0 -28 -22.5 -47.5t-52.5 -19.5q-58 0 -104 52l-42 -45h-16q-33 0 -59 23.5
t-26 65.5q0 44 30 73.5t87 29.5l84 -4q67 0 78 59h50zM-210 647q0 30 -30 30t-30 -30t30 -30t30 30z" />
    <glyph glyph-name="uniF713" unicode="&#xf713;" 
d="M-152 800h-53v137h53v-137z" />
    <glyph glyph-name="uniF714" unicode="&#xf714;" 
d="M-98 953q-12 -47 -42.5 -78.5t-70.5 -50t-85.5 -26.5t-88.5 -8v30q42 9 59 33q-27 0 -44 17t-17 45q0 26 19.5 44t46.5 18q29 0 49 -16t20 -47q0 -23 -11 -44t-28 -35q27 5 52.5 16.5t46 28t34.5 38t17 45.5zM-290 914q0 30 -31 30t-31 -30t31 -30t31 30z" />
    <glyph glyph-name="uniF715" unicode="&#xf715;" 
d="M-107 995q0 -58 -25.5 -112t-72.5 -89l-38 12q8 24 11.5 38t3.5 33q0 45 -34 45q-22 0 -31 -16q-5 -4 -6 -18h-36q-9 34 -46 34q-14 0 -24 -7.5t-13 -18.5l15 3q23 0 38 -14.5t15 -38.5q0 -26 -16 -41t-38 -15q-25 0 -41 16q-24 21 -24 61q0 42 25 68t62 26q24 0 41 -11
q11 -6 24 -23q8 13 24 23t37 10q30 0 48.5 -20t18.5 -49l-2 -27q19 26 32 58t13 73h39zM-381 845q0 25 -23 25q-24 0 -24 -25q0 -26 24 -26q23 0 23 26z" />
    <glyph glyph-name="uniF716" unicode="&#xf716;" 
d="M-108 873h-77v-73h-47v73h-79v36h79v74h47v-74h77v-36z" />
    <glyph glyph-name="uniF717" unicode="&#xf717;" 
d="M-123 1002q-3 -27 -16.5 -44t-30 -25.5t-31.5 -11t-21 -1.5q-6 0 -11 0.5t-9 0.5h-12q21 -5 34.5 -21.5t13.5 -39.5q0 -27 -19 -46t-47 -19q-29 0 -51.5 20.5t-22.5 53.5q0 35 21.5 59t58.5 28q18 2 33.5 4t29.5 4q12 4 22 15t10 23h48zM-242 859q0 30 -30 30t-30 -30
q0 -32 30 -32t30 32z" />
    <glyph glyph-name="uniF718" unicode="&#xf718;" 
d="M-81 -511h-53v106q-14 -6 -31 -6q-33 0 -54 24.5t-21 56.5q0 37 23 59.5t55 22.5q35 0 58 -24t23 -65v-174zM-129 -330q0 38 -33 38t-33 -38q0 -39 33 -39t33 39z" />
    <glyph glyph-name="uniF719" unicode="&#xf719;" 
d="M-73 -421q0 -37 -19 -52t-54 -15h-92v82q-15 -6 -31 -6q-29 0 -49 20q-26 23 -26 61q0 37 23 59.5t54 22.5q35 0 58.5 -23.5t23.5 -65.5v-105h32q27 0 27 20v174h53v-172zM-233 -331q0 38 -34 38q-33 0 -33 -38q0 -39 33 -39q34 0 34 39z" />
    <glyph glyph-name="uniF71A" unicode="&#xf71a;" 
d="M-81 -291q0 -22 -12.5 -34t-31.5 -12t-31.5 12t-12.5 34t12.5 34.5t31.5 12.5t31.5 -12.5t12.5 -34.5z" />
    <glyph glyph-name="uniF71D" unicode="&#xf71d;" horiz-adv-x="627" 
d="M589 538q-22 -39 -48 -63q11 -16 11 -50v-385q0 -40 -40 -40h-31l-136 308l-133 -308h-31q-40 0 -40 40v309q-11 -5 -20 -7t-17 -2q-35 0 -60 23.5t-25 61.5q0 37 26 61t61 24q41 0 64 -24.5t23 -66.5v-253q0 -33 -1 -59t-5 -40l36 81l98 227h48l101 -227l33 -81v29
t-2 29q-1 10 -1 17v12v270l-1 15q-19 -11 -47.5 -22.5t-61.5 -11.5q-48 0 -80 20.5t-32 55.5q0 17 10 32t26.5 26t38 17.5t44.5 6.5q35 0 65 -11t51 -34q8 7 15 16.5t14 21.5zM476 481q-27 34 -81 34q-28 0 -47.5 -9.5t-19.5 -24.5t17.5 -22t45.5 -7t47.5 8.5t37.5 20.5z
M145 425q0 40 -40 40t-40 -40t40 -40t40 40z" />
    <glyph glyph-name="saraamleft" horiz-adv-x="350" 
d="M-125 666q0 -37 -24.5 -61.5t-61.5 -24.5t-61.5 24.5t-24.5 61.5t24.5 61.5t61.5 24.5t61.5 -24.5t24.5 -61.5zM-169 666q0 19 -11.5 30.5t-30.5 11.5t-30.5 -11.5t-11.5 -30.5t11.5 -30.5t30.5 -11.5t30.5 11.5t11.5 30.5zM348 -1h-52v356q0 54 -30.5 80t-84.5 26
q-48 0 -81.5 -23.5t-44.5 -77.5h-52q8 68 55.5 108.5t122.5 40.5q38 0 68.5 -10.5t52.5 -30t34 -47.5t12 -62v-360z" />
    <glyph glyph-name="yamakkanleftthai" horiz-adv-x="524" 
 />
    <glyph glyph-name="Typomancer" horiz-adv-x="607" 
 />
    <glyph glyph-name="zero.pnum" horiz-adv-x="483" 
d="M443 289q0 -51 -7.5 -104t-29.5 -95.5t-61.5 -69.5t-103.5 -27q-63 0 -102.5 27t-61.5 69.5t-30 95.5t-8 104t8 103.5t30.5 95.5t61.5 70.5t102 27.5t102 -27.5t61.5 -70.5t30.5 -95.5t8 -103.5zM391 289q0 38 -5 82t-20.5 82t-45 63.5t-79.5 25.5q-49 0 -78.5 -25.5
t-45.5 -63.5t-20.5 -82t-4.5 -82q0 -37 4.5 -81.5t20.5 -83t45.5 -64t78.5 -25.5q50 0 79.5 25.5t45.5 63.5t20.5 82.5t4.5 82.5z" />
    <glyph glyph-name="one.pnum" horiz-adv-x="305" 
d="M245 0h-53v428h-152v38q35 0 62.5 2.5t47.5 13.5t33 33.5t19 61.5h43v-577z" />
    <glyph glyph-name="two.pnum" horiz-adv-x="443" 
d="M411 0h-381q0 104 102 183q44 33 87.5 64.5t88.5 64.5q23 26 35.5 50.5t12.5 58.5q0 54 -36.5 86t-92.5 32q-67 0 -98.5 -45.5t-31.5 -115.5h-53q0 94 45.5 149.5t139.5 55.5q39 0 72 -10.5t57 -31.5t37 -51.5t13 -69.5q0 -36 -12.5 -65.5t-32.5 -54.5t-46.5 -46
t-53.5 -39q-26 -18 -51.5 -34.5t-51.5 -33.5q-60 -49 -71 -99h322v-48z" />
    <glyph glyph-name="three.pnum" horiz-adv-x="445" 
d="M423 168q0 -41 -15 -73.5t-41.5 -55t-63 -34t-79.5 -11.5q-92 0 -145 50t-53 144h52q0 -69 38 -110.5t107 -41.5q30 0 57 8.5t47 25t31.5 40t11.5 53.5q0 60 -39 91.5t-100 31.5h-43v43h43q24 0 45 7t37.5 20.5t26 33.5t9.5 45q0 54 -35.5 81t-90.5 27q-65 0 -98 -40
t-33 -106h-53q0 41 13 76t36.5 60.5t57.5 39.5t76 14q35 0 67 -8.5t56.5 -26.5t39.5 -45.5t15 -66.5q0 -48 -25 -82.5t-71 -45.5q57 -11 88 -49t31 -95z" />
    <glyph glyph-name="four.pnum" horiz-adv-x="472" 
d="M436 144h-87v-144h-48v144h-266v49l267 384h47v-390h87v-43zM301 187v314l-220 -314h220z" />
    <glyph glyph-name="five.pnum" horiz-adv-x="457" 
d="M424 189q0 -42 -15.5 -78t-42.5 -61.5t-63.5 -40t-78.5 -14.5q-41 0 -76 12t-60.5 35t-39.5 55.5t-14 72.5h52q0 -29 11 -53.5t30 -42t45.5 -27.5t56.5 -10q32 0 58.5 12.5t45 34t29 50t10.5 60.5t-11 59.5t-30.5 47.5t-47 31.5t-59.5 11.5q-38 0 -72 -17t-56 -52h-44
l55 301h289v-48h-252l-37 -191q23 23 56 37t68 14q44 0 80 -14.5t61 -40.5t38.5 -62.5t13.5 -81.5z" />
    <glyph glyph-name="six.pnum" horiz-adv-x="465" 
d="M432 188q0 -43 -15 -78.5t-41 -61t-62.5 -40t-78.5 -14.5q-52 0 -90.5 16.5t-63 52.5t-36.5 94t-12 142q0 50 9.5 101t33.5 92.5t63.5 68t99.5 26.5q160 0 178 -151h-51q-8 50 -39.5 78.5t-82.5 28.5q-50 0 -81 -25.5t-48.5 -64.5t-23.5 -84t-6 -84q23 44 65 69.5
t90 25.5q44 0 79 -14t60.5 -39.5t39 -60.5t13.5 -78zM380 185q0 32 -10 60t-28.5 48.5t-44.5 32t-58 11.5q-66 0 -104 -43t-38 -109q0 -67 35.5 -108t107.5 -41q30 0 56 11.5t44.5 32t29 47.5t10.5 58z" />
    <glyph glyph-name="seven.pnum" horiz-adv-x="469" 
d="M423 523q-52 -52 -95.5 -112.5t-74 -126.5t-47.5 -137.5t-17 -146.5h-56q0 80 18 150t49.5 133.5t75.5 122.5t95 117h-319v47h371v-47z" />
    <glyph glyph-name="eight.pnum" horiz-adv-x="471" 
d="M432 165q0 -42 -15 -74t-42 -53.5t-63.5 -33t-79.5 -11.5q-86 0 -141 40q-58 48 -58 132q0 58 31 97t87 50q-94 33 -94 129q0 37 15 64.5t39.5 45.5t56 26.5t64.5 8.5t64.5 -9t56 -27t39.5 -45.5t15 -63.5q0 -47 -24.5 -80t-69.5 -47v-2q56 -11 87.5 -49.5t31.5 -97.5z
M356 441q0 48 -34 74.5t-90 26.5q-52 0 -88 -26.5t-36 -74.5q0 -28 10 -48t27 -33t39.5 -19t47.5 -6q53 0 88.5 26.5t35.5 79.5zM379 165q0 61 -41.5 93.5t-105.5 32.5q-63 0 -105 -32.5t-42 -93.5q0 -63 41 -96.5t106 -33.5q31 0 58 8t46.5 24t31 40.5t11.5 57.5z" />
    <glyph glyph-name="nine.pnum" horiz-adv-x="469" 
d="M431 277q0 -50 -9.5 -101t-33.5 -92t-64 -67t-100 -26q-157 0 -177 149h52q6 -49 38.5 -78t82.5 -29t80.5 26t48 64.5t23.5 83.5t6 84q-22 -44 -63.5 -70t-91.5 -26q-43 0 -78.5 14t-60.5 39.5t-38.5 61.5t-13.5 79t15 78.5t41 61.5t62 40.5t79 14.5q53 0 91 -16.5
t63 -53.5t36.5 -95t11.5 -142zM367 392q0 69 -36.5 108.5t-107.5 39.5q-30 0 -55.5 -11.5t-43.5 -31.5t-28.5 -47t-10.5 -58q0 -33 9.5 -61t27.5 -48.5t44 -32t58 -11.5q68 0 105.5 43t37.5 110z" />
    </font>
</defs>
</svg>
